<?xml version="1.0" standalone="no"?>
<!DOCTYPE svg PUBLIC "-//W3C//DTD SVG 1.1//EN" "http://www.w3.org/Graphics/SVG/1.1/DTD/svg11.dtd" >
<svg xmlns="http://www.w3.org/2000/svg">
<metadata>
<json>
<![CDATA[
{
	"fontFamily": "Phosphor",
	"majorVersion": 1,
	"minorVersion": 2,
	"fontURL": "https://phosphoricons.com",
	"description": "A flexible icon family for everyone\nFont generated by IcoMoon.",
	"copyright": "Phosphor Icons",
	"designer": "Tobias Fried & Helena Zhang",
	"designerURL": "https://phosphoricons.com",
	"license": "MIT",
	"licenseURL": "https://raw.githubusercontent.com/phosphor-icons/phosphor-web/master/LICENSE",
	"version": "Version 1.2",
	"fontId": "Phosphor",
	"psName": "Phosphor",
	"subFamily": "Regular",
	"fullName": "Phosphor"
}
]]>
</json>
</metadata>
<defs>
<font id="Phosphor" horiz-adv-x="1024">
<font-face units-per-em="1024" ascent="1024" descent="0" />
<missing-glyph horiz-adv-x="1024" />
<glyph unicode="&#x20;" horiz-adv-x="512" d="" />
<glyph unicode="&#xe900;" glyph-name="arrow-left" data-tags="arrow-left" d="M128 512c0 17.673 14.327 32 32 32h704c17.675 0 32-14.327 32-32s-14.325-32-32-32h-704c-17.673 0-32 14.327-32 32zM470.627 822.627c12.497-12.497 12.497-32.758 0-45.254l-265.372-265.373 265.372-265.371c12.497-12.501 12.497-32.757 0-45.259-12.497-12.496-32.758-12.496-45.254 0l-288 288c-12.497 12.499-12.497 32.76 0 45.257l288 288c12.497 12.497 32.758 12.497 45.254 0z" />
<glyph unicode="&#xe901;" glyph-name="arrow-right" data-tags="arrow-right" d="M128 512c0 17.673 14.327 32 32 32h704c17.675 0 32-14.327 32-32s-14.325-32-32-32h-704c-17.673 0-32 14.327-32 32zM553.371 822.627c12.501 12.497 32.757 12.497 45.259 0l288-288c12.496-12.497 12.496-32.758 0-45.257l-288-288c-12.501-12.496-32.757-12.496-45.259 0-12.496 12.501-12.496 32.757 0 45.259l265.376 265.371-265.376 265.373c-12.496 12.497-12.496 32.758 0 45.254z" />
<glyph unicode="&#xe902;" glyph-name="sliders-horizontal" data-tags="sliders-horizontal" d="M159.998 368.027h432.002c17.669 0 32-14.325 32-32s-14.331-32-32-32h-432.002c-17.673 0-32 14.325-32 32 0 17.669 14.327 32 32 32zM720 336.027c0 17.675 14.325 32 32 32h112c17.669 0 32-14.331 32-32 0-17.675-14.331-32-32-32h-112c-17.675 0-32 14.325-32 32zM672 384.027c-26.512 0-48-21.493-48-48 0-26.512 21.488-48 48-48 26.507 0 48 21.488 48 48 0 26.507-21.493 48-48 48zM560 336.027c0 61.856 50.144 112 112 112s112-50.144 112-112c0-61.856-50.144-112-112-112s-112 50.144-112 112zM127.998 688.029c0.001 17.673 14.327 31.999 32.001 31.999l176-0.002c17.673-0.001 32-14.327 31.999-32.001s-14.327-32-32-31.999l-176 0.002c-17.674 0-32 14.327-32 32.001zM495.998 720.026l368.002 0.002c17.669 0 32-14.327 32-32s-14.331-32-32-32l-368.002-0.002c-17.673-0.001-32 14.326-32.001 31.999s14.327 32 32 32.001zM415.998 736.026c-26.509 0-48-21.491-48-48s21.491-48 48-48c26.51 0 48 21.49 48 48s-21.49 48-48 48zM303.998 688.026c0 61.855 50.145 112 112 112s112-50.145 112-112c0-61.856-50.144-112-112-112s-112 50.144-112 112z" />
<glyph unicode="&#xe9da;" glyph-name="check-circle-fill" data-tags="check-circle-fill" d="M512 928c-229.75 0-416-186.25-416-416s186.25-416 416-416c229.75 0 416 186.25 416 416v0c-0.274 229.64-186.36 415.726-415.974 416h-0.026zM710.125 584.844l-234.687-224c-5.746-5.475-13.542-8.844-22.125-8.844s-16.379 3.369-22.138 8.856l0.013-0.012-117.313 112c-6.089 5.84-9.873 14.042-9.873 23.128 0 17.688 14.339 32.027 32.027 32.027 8.573 0 16.36-3.369 22.108-8.855l-0.013 0.012 95.187-90.906 212.563 202.906c5.736 5.474 13.522 8.843 22.096 8.843 17.688 0 32.027-14.339 32.027-32.027 0-9.086-3.784-17.289-9.861-23.117l-0.011-0.011z" />
<glyph unicode="&#xea9c;" glyph-name="heart-fill" data-tags="heart-fill" d="M944.094 656c0-122.26-70.855-248.020-210.594-373.785-60.678-54.58-128.007-104.197-199.916-146.915l-5.853-3.22c-4.502-2.567-9.893-4.080-15.637-4.080s-11.135 1.513-15.795 4.163l0.158-0.083c-17 9.52-416.363 236.469-416.363 523.92 0.046 132.558 107.517 240 240.081 240 78.189 0 147.648-37.377 191.484-95.239l0.435-0.599c44.271 58.461 113.73 95.838 191.919 95.838 132.565 0 240.035-107.442 240.081-239.996v-0.004z" />
<glyph unicode="&#xeb9c;" glyph-name="star-fill" data-tags="star-fill" d="M936.039 562.105l-180.938-150.594 57.438-232.313c1.36-5.027 2.142-10.798 2.142-16.752 0-22.122-10.788-41.725-27.39-53.835l-0.19-0.132c-10.524-7.752-23.745-12.406-38.053-12.406-12.905 0-24.927 3.787-35.013 10.309l0.253-0.153-201.75 127.813c-0.563 0.312-0.813 0.187-1.063 0l-187.5-118.781c-10.838-6.993-24.079-11.149-38.289-11.149-15.773 0-30.35 5.12-42.16 13.788l0.199-0.139c-18.527 13.512-30.43 35.145-30.43 59.558 0 6.577 0.864 12.952 2.484 19.017l-0.117-0.513 54.062 212.656-181.75 153.625c-14.718 12.326-24.011 30.709-24.011 51.263 0 7.506 1.239 14.723 3.525 21.457l-0.139-0.47c8.244 25.318 30.825 43.632 57.925 45.458l0.2 0.011 236.25 15.344 89.437 223.187c9.725 24.549 33.239 41.606 60.744 41.656h0.068c27.558-0.005 51.128-17.073 60.72-41.215l0.155-0.442 88.125-221.906 237.563-16.625c27.3-1.837 49.881-20.151 57.994-45.006l0.131-0.463c2.147-6.264 3.386-13.48 3.386-20.987 0-20.554-9.293-38.938-23.907-51.178l-0.104-0.085z" />
<glyph unicode="&#xebea;" glyph-name="warning-circle-fill" data-tags="warning-circle-fill" d="M512 928c-229.75 0-416-186.25-416-416s186.25-416 416-416c229.75 0 416 186.25 416 416v0c-0.268 229.643-186.358 415.733-415.975 416h-0.025zM480 704c0 17.673 14.327 32 32 32s32-14.327 32-32v0-224c0-17.673-14.327-32-32-32s-32 14.327-32 32v0zM512 288c-26.51 0-48 21.49-48 48s21.49 48 48 48c26.51 0 48-21.49 48-48v0c0-26.51-21.49-48-48-48v0z" />
<glyph unicode="&#xece0;" glyph-name="check-bold" data-tags="check-bold" d="M415.998 240c-0.018 0-0.040 0-0.062 0-13.235 0-25.215 5.373-33.878 14.058l-224.001 223.981c-8.687 8.687-14.060 20.688-14.060 33.943 0 26.511 21.491 48.002 48.002 48.002 13.255 0 25.255-5.372 33.941-14.058l190.059-190.045 414.059 414.043c8.686 8.686 20.686 14.059 33.941 14.059 26.51 0 48-21.491 48-48 0-13.255-5.373-25.255-14.059-33.941l-448-447.982c-8.664-8.685-20.644-14.059-33.879-14.059-0.022 0-0.044 0-0.066 0h0.003z" />
<glyph unicode="&#xef57;" glyph-name="arrows-left-right" data-tags="arrows-left-right" d="M919.082 297.873c-0.156-0.164-0.293-0.34-0.453-0.502l-128-128c-5.791-5.791-13.792-9.373-22.629-9.373-17.674 0-32.002 14.328-32.002 32.002 0 8.837 3.582 16.838 9.373 22.629v0l73.375 73.371h-690.746c-17.673 0-32 14.327-32 32s14.327 32 32 32v0h690.746l-73.375 73.371c-5.791 5.791-9.373 13.792-9.373 22.629 0 17.674 14.328 32.002 32.002 32.002 8.837 0 16.838-3.582 22.629-9.373v0l128-128c0.15-0.15 0.275-0.316 0.422-0.469 0.582-0.604 1.154-1.217 1.686-1.865 0.35-0.424 0.656-0.871 0.98-1.311 0.295-0.398 0.605-0.787 0.883-1.201 0.334-0.498 0.625-1.014 0.928-1.525 0.228-0.387 0.471-0.762 0.684-1.158 0.275-0.512 0.508-1.039 0.754-1.562 0.199-0.424 0.41-0.842 0.592-1.277 0.209-0.506 0.379-1.021 0.561-1.533 0.17-0.475 0.352-0.939 0.498-1.424 0.156-0.516 0.271-1.039 0.402-1.561 0.123-0.492 0.262-0.977 0.361-1.477 0.119-0.607 0.193-1.221 0.279-1.832 0.059-0.422 0.139-0.838 0.182-1.266 0.1-0.95 0.157-2.052 0.157-3.168s-0.057-2.218-0.168-3.304l0.011 0.136c-0.043-0.428-0.123-0.844-0.182-1.266-0.086-0.611-0.16-1.225-0.279-1.832-0.1-0.5-0.238-0.984-0.361-1.477-0.131-0.521-0.246-1.045-0.402-1.561-0.146-0.484-0.328-0.949-0.498-1.424-0.182-0.512-0.352-1.027-0.561-1.533-0.182-0.436-0.393-0.854-0.592-1.277-0.246-0.523-0.479-1.051-0.754-1.562-0.213-0.396-0.455-0.771-0.684-1.158-0.303-0.512-0.594-1.027-0.928-1.525-0.277-0.414-0.588-0.803-0.883-1.201-0.324-0.439-0.631-0.887-0.98-1.311-0.521-0.636-1.084-1.238-1.654-1.832zM102.283 722.984c-0.295-0.398-0.605-0.787-0.883-1.201-0.334-0.498-0.625-1.014-0.928-1.525-0.228-0.387-0.471-0.762-0.684-1.158-0.275-0.512-0.508-1.039-0.754-1.562-0.199-0.424-0.41-0.842-0.592-1.277-0.209-0.506-0.379-1.021-0.561-1.533-0.17-0.475-0.352-0.939-0.498-1.424-0.156-0.516-0.271-1.039-0.402-1.561-0.123-0.492-0.262-0.977-0.361-1.477-0.119-0.607-0.193-1.221-0.279-1.832-0.059-0.422-0.139-0.838-0.182-1.266-0.1-0.95-0.157-2.052-0.157-3.168s0.057-2.218 0.168-3.304l-0.011 0.136c0.043-0.428 0.123-0.844 0.182-1.266 0.086-0.611 0.16-1.225 0.279-1.832 0.1-0.5 0.238-0.984 0.361-1.477 0.131-0.521 0.246-1.045 0.402-1.561 0.146-0.484 0.328-0.949 0.498-1.424 0.182-0.512 0.352-1.027 0.561-1.533 0.182-0.436 0.393-0.854 0.592-1.277 0.246-0.523 0.479-1.051 0.754-1.562 0.213-0.396 0.455-0.771 0.684-1.158 0.303-0.512 0.594-1.027 0.928-1.525 0.277-0.414 0.588-0.803 0.883-1.201 0.324-0.439 0.631-0.887 0.98-1.311 0.521-0.637 1.084-1.238 1.654-1.832 0.156-0.164 0.293-0.34 0.453-0.502l128-128c5.791-5.791 13.792-9.373 22.629-9.373 17.674 0 32.002 14.328 32.002 32.002 0 8.837-3.582 16.838-9.373 22.629v0l-73.375 73.371h690.746c17.673 0 32 14.327 32 32s-14.327 32-32 32v0h-690.746l73.375 73.371c5.791 5.791 9.373 13.792 9.373 22.629 0 17.674-14.328 32.002-32.002 32.002-8.837 0-16.838-3.582-22.629-9.373v0l-128-128c-0.15-0.15-0.275-0.316-0.422-0.469-0.582-0.604-1.154-1.217-1.686-1.865-0.35-0.424-0.656-0.871-0.98-1.311z" />
<glyph unicode="&#xef76;" glyph-name="star-half-light" data-tags="star-half-light" d="M930.867 568.238l-34.875-29.023c-4.128-3.455-9.495-5.553-15.352-5.553-13.254 0-23.998 10.744-23.998 23.998 0 7.397 3.347 14.012 8.609 18.415l0.038 0.031 34.871 29.023c2.376 1.965 3.878 4.914 3.878 8.213 0 1.311-0.237 2.567-0.671 3.727l0.024-0.073c-1.045 3.857-4.394 6.693-8.445 6.956l-0.028 0.001-46.191 2.996c-12.558 0.853-22.422 11.248-22.422 23.948 0 13.255 10.745 24 24 24 0.539 0 1.073-0.018 1.603-0.053l-0.072 0.004 46.191-2.996c23.978-1.634 43.8-17.745 50.894-39.593l0.114-0.407c1.897-5.521 2.993-11.882 2.993-18.499 0-18.095-8.191-34.276-21.068-45.039l-0.093-0.075zM699.988 394.691l13.258-52.141c2.716-10.497 12.103-18.125 23.271-18.125 13.256 0 24.002 10.746 24.002 24.002 0 2.114-0.273 4.165-0.787 6.118l0.037-0.167-13.258 52.137c-0.234 0.847-0.369 1.82-0.369 2.823 0 3.32 1.471 6.296 3.796 8.313l0.014 0.012 40.129 33.398c5.3 4.433 8.646 11.048 8.646 18.445 0 13.254-10.744 23.998-23.998 23.998-5.857 0-11.223-2.098-15.389-5.583l0.038 0.031-40.129-33.395c-12.927-10.936-21.080-27.168-21.080-45.305 0-5.173 0.663-10.191 1.909-14.974l-0.091 0.412zM711.207 635.875l-52.547 3.41c-22.64 1.678-41.529 16.13-49.603 36.111l-0.139 0.389-72.918 183.619v-574.549c2.55-1.177 4.678-2.348 6.716-3.647l-0.227 0.135 46.066-29.188c6.748-4.324 11.156-11.784 11.156-20.273 0-13.255-10.745-23.999-23.999-23.999-4.765 0-9.206 1.389-12.939 3.783l0.096-0.057-46.066 29.188c-1.357 0.882-3.018 1.406-4.801 1.406s-3.443-0.524-4.835-1.427l0.035 0.021-187.48-118.781c-9.607-6.335-21.392-10.106-34.058-10.106-14.047 0-27.011 4.639-37.444 12.468l0.161-0.116c-16.485 12.048-27.073 31.315-27.073 53.055 0 5.887 0.776 11.593 2.232 17.020l-0.105-0.458 54.055 212.641c0.234 0.846 0.369 1.818 0.369 2.822 0 3.318-1.471 6.293-3.796 8.307l-0.014 0.012-180.91 150.578c-12.972 10.837-21.164 27.020-21.164 45.116 0 6.617 1.095 12.977 3.115 18.911l-0.122-0.413c7.208 22.255 27.030 38.366 50.831 39.99l0.177 0.010 236.258 15.332c3.801 0.332 6.945 2.829 8.213 6.238l0.022 0.067 88.121 221.898c8.522 21.604 29.215 36.613 53.413 36.613 24.2 0 44.894-15.011 53.28-36.229l0.135-0.388 88.117-221.887c1.29-3.48 4.437-5.98 8.206-6.31l0.036-0.003 52.543-3.41c12.558-0.853 22.422-11.248 22.422-23.948 0-13.255-10.745-24-24-24-0.539 0-1.073 0.018-1.603 0.053l0.072-0.004zM481.512 281.344c1.811 1.163 3.938 2.335 6.143 3.367l0.345 0.145v574.552l-72.922-183.63c-8.213-20.365-27.098-34.814-49.543-36.481l-0.192-0.011-236.262-15.332c-4.078-0.266-7.427-3.101-8.457-6.891l-0.015-0.066c-0.41-1.086-0.647-2.342-0.647-3.653 0-3.301 1.504-6.25 3.864-8.2l0.018-0.014 180.906-150.574c12.927-10.933 21.080-27.164 21.080-45.299 0-5.172-0.663-10.19-1.909-14.972l0.091 0.412-54.055-212.645c-0.426-1.433-0.671-3.080-0.671-4.784 0-5.809 2.847-10.954 7.221-14.114l0.051-0.035c2.499-1.93 5.675-3.093 9.123-3.093 3.113 0 6.005 0.948 8.402 2.572l-0.053-0.034zM793.703 220.879c-2.743 10.459-12.111 18.051-23.252 18.051-13.256 0-24.002-10.746-24.002-24.002 0-2.087 0.266-4.113 0.767-6.044l-0.037 0.167 11.098-43.648c0.284-0.905 0.448-1.946 0.448-3.025 0-3.51-1.732-6.616-4.388-8.508l-0.032-0.022c-1.426-1.144-3.258-1.836-5.252-1.836-1.805 0-3.478 0.568-4.849 1.534l0.027-0.018-39.305 24.898c-3.634 2.33-8.068 3.714-12.825 3.714-13.255 0-23.999-10.745-23.999-23.999 0-8.482 4.4-15.936 11.041-20.204l0.095-0.057 39.301-24.898c8.63-5.586 19.179-8.906 30.504-8.906 12.576 0 24.195 4.095 33.598 11.024l-0.156-0.11c14.745 10.773 24.216 28.003 24.216 47.446 0 5.259-0.693 10.357-1.993 15.206l0.093-0.41z" />
<glyph unicode="&#xef79;" glyph-name="bag" data-tags="bag" d="M864 768h-162.717c-15.854 91.386-94.556 160-189.283 160s-173.429-68.614-189.118-158.853l-0.165-1.147h-162.717c-35.329-0.042-63.958-28.671-64-63.996v-512.004c0.042-35.329 28.671-63.958 63.996-64h704.004c35.329 0.042 63.958 28.671 64 63.996v512.004c-0.042 35.329-28.671 63.958-63.996 64h-0.004zM512 864c59.297-0.079 109.157-40.394 123.746-95.104l0.203-0.896h-247.898c14.792 55.606 64.652 95.921 123.94 96h0.009zM864 192h-704v512h160v-96c0-17.673 14.327-32 32-32s32 14.327 32 32v0 96h256v-96c0-17.673 14.327-32 32-32s32 14.327 32 32v0 96h160z" />
<glyph unicode="&#xef7a;" glyph-name="bag-simple" data-tags="bag-simple" d="M864 768h-162.717c-15.854 91.386-94.556 160-189.283 160s-173.429-68.614-189.118-158.853l-0.165-1.147h-162.717c-35.329-0.042-63.958-28.671-64-63.996v-512.004c0.042-35.329 28.671-63.958 63.996-64h704.004c35.329 0.042 63.958 28.671 64 63.996v512.004c-0.042 35.329-28.671 63.958-63.996 64h-0.004zM512 864c59.297-0.079 109.157-40.394 123.746-95.104l0.203-0.896h-247.898c14.792 55.606 64.652 95.921 123.94 96h0.009zM864 192h-704v512h704z" />
<glyph unicode="&#xefab;" glyph-name="camera" data-tags="camera" d="M832 800h-110.898l-54.5 81.75c-5.82 8.641-15.567 14.25-26.625 14.25 0 0 0 0 0 0h-256c0 0 0 0 0 0-11.057 0-20.805-5.609-26.552-14.136l-0.072-0.114-54.5-81.75h-110.852c-52.994-0.063-95.937-43.006-96-95.994v-448.006c0.063-52.994 43.006-95.937 95.994-96h640.006c52.994 0.063 95.937 43.006 96 95.994v448.006c-0.063 52.994-43.006 95.937-95.994 96h-0.006zM864 256c-0.021-17.665-14.335-31.979-31.998-32h-640.002c-17.665 0.021-31.979 14.335-32 31.998v448.002c0.021 17.665 14.335 31.979 31.998 32h127.979c0 0 0 0 0 0 11.057 0 20.805 5.609 26.552 14.136l0.072 0.114 54.5 81.75h221.75l54.5-81.75c5.82-8.641 15.567-14.25 26.625-14.25 0 0 0 0 0 0h128.023c17.665-0.021 31.979-14.335 32-31.998v-0.002zM512 672c-97.202 0-176-78.798-176-176s78.798-176 176-176c97.202 0 176 78.798 176 176v0c-0.113 97.157-78.843 175.887-175.989 176h-0.011zM512 384c-61.856 0-112 50.144-112 112s50.144 112 112 112c61.856 0 112-50.144 112-112v0c-0.072-61.827-50.173-111.928-111.993-112h-0.007z" />
<glyph unicode="&#xefb9;" glyph-name="caret-double-left" data-tags="caret-double-left" d="M822.627 214.627c5.799-5.792 9.387-13.798 9.387-22.641 0-17.673-14.327-31.999-31.999-31.999-8.843 0-16.849 3.587-22.641 9.386v0l-320 320c-5.791 5.79-9.374 13.79-9.374 22.627s3.582 16.837 9.374 22.627l320 320c5.789 5.782 13.783 9.358 22.613 9.358 17.673 0 31.999-14.327 31.999-31.999 0-8.829-3.576-16.823-9.359-22.613v0l-297.371-297.373zM205.256 512l297.371 297.373c5.782 5.789 9.358 13.783 9.358 22.613 0 17.673-14.327 31.999-31.999 31.999-8.829 0-16.823-3.576-22.613-9.359v0l-320-320c-5.791-5.79-9.374-13.79-9.374-22.627s3.582-16.837 9.374-22.627l320-320c5.789-5.782 13.783-9.358 22.613-9.358 17.673 0 31.999 14.327 31.999 31.999 0 8.829-3.576 16.823-9.359 22.613v0z" />
<glyph unicode="&#xefba;" glyph-name="caret-double-right" data-tags="caret-double-right" d="M566.627 489.373l-320-320c-5.789-5.782-13.783-9.358-22.613-9.358-17.673 0-31.999 14.327-31.999 31.999 0 8.829 3.576 16.823 9.359 22.613v0l297.371 297.373-297.371 297.373c-5.782 5.789-9.358 13.783-9.358 22.613 0 17.673 14.327 31.999 31.999 31.999 8.829 0 16.823-3.576 22.613-9.359v0l320-320c5.791-5.79 9.374-13.79 9.374-22.627s-3.582-16.837-9.374-22.627v0zM886.627 534.627l-320 320c-5.789 5.782-13.783 9.358-22.613 9.358-17.673 0-31.999-14.327-31.999-31.999 0-8.829 3.576-16.823 9.359-22.613v0l297.371-297.373-297.371-297.373c-5.799-5.792-9.387-13.798-9.387-22.641 0-17.673 14.327-31.999 31.999-31.999 8.843 0 16.849 3.587 22.641 9.386v0l320 320c5.791 5.79 9.374 13.79 9.374 22.627s-3.582 16.836-9.373 22.627v0z" />
<glyph unicode="&#xefbc;" glyph-name="caret-down" data-tags="caret-down" d="M512 288c-0.012 0-0.026 0-0.040 0-8.824 0-16.811 3.583-22.586 9.372l-320.001 320c-5.791 5.791-9.373 13.791-9.373 22.628 0 17.673 14.327 32 32 32 8.836 0 16.836-3.582 22.627-9.372l297.373-297.372 297.373 297.372c5.791 5.791 13.791 9.372 22.627 9.372 17.673 0 32-14.327 32-32 0-8.837-3.582-16.837-9.373-22.628l-320-319.999c-5.776-5.79-13.763-9.373-22.586-9.373-0.014 0-0.028 0-0.043 0h0.002z" />
<glyph unicode="&#xefbd;" glyph-name="caret-left" data-tags="caret-left" d="M640 160c-0.012 0-0.027 0-0.042 0-8.823 0-16.81 3.582-22.584 9.371l-320.001 320.001c-5.791 5.791-9.374 13.791-9.374 22.628s3.582 16.837 9.374 22.628l320 320c5.791 5.791 13.791 9.372 22.627 9.372 17.673 0 32-14.327 32-32 0-8.837-3.582-16.837-9.373-22.628l-297.371-297.372 297.371-297.372c5.791-5.791 9.373-13.791 9.373-22.628 0-17.673-14.327-32-32-32 0 0 0 0 0 0v0z" />
<glyph unicode="&#xefbe;" glyph-name="caret-right" data-tags="caret-right" d="M384 160c0 0 0 0 0 0-17.673 0-32 14.327-32 32 0 8.837 3.582 16.837 9.373 22.628l297.371 297.372-297.371 297.372c-5.791 5.791-9.373 13.791-9.373 22.628 0 17.673 14.327 32 32 32 8.836 0 16.836-3.582 22.627-9.372l320-320c5.791-5.791 9.374-13.791 9.374-22.628s-3.582-16.837-9.374-22.628l-320-320c-5.775-5.79-13.762-9.372-22.585-9.372-0.015 0-0.029 0-0.044 0h0.002z" />
<glyph unicode="&#xefe0;" glyph-name="check" data-tags="check" d="M415.998 256c-0.013 0-0.028 0-0.043 0-8.822 0-16.807 3.582-22.581 9.37l-224.001 223.983c-5.792 5.791-9.374 13.792-9.374 22.629 0 17.673 14.327 31.999 31.999 31.999 8.835 0 16.834-3.581 22.625-9.37l201.375-201.357 425.371 425.355c5.789 5.782 13.783 9.357 22.612 9.357 17.674 0 32.001-14.327 32.001-32.001 0-8.828-3.575-16.821-9.356-22.611v0l-448-447.984c-5.778-5.789-13.767-9.371-22.592-9.371-0.013 0-0.026 0-0.039 0h0.002z" />
<glyph unicode="&#xefe1;" glyph-name="check-circle" data-tags="check-circle" d="M711.146 630.095c5.479-5.733 8.852-13.519 8.852-22.094 0-9.099-3.798-17.311-9.894-23.137l-0.012-0.012-234.664-224c-5.733-5.48-13.52-8.854-22.095-8.854-8.574 0-16.36 3.372-22.105 8.863l0.012-0.011-117.336 112c-6.109 5.838-9.906 14.050-9.906 23.148 0 17.673 14.327 32 32 32 8.574 0 16.361-3.372 22.106-8.863l-0.012 0.011 95.242-90.91 212.57 202.908c5.733 5.48 13.52 8.854 22.096 8.854 9.098 0 17.309-3.797 23.135-9.892l0.011-0.012zM927.998 512c0-229.75-186.25-416-416-416s-416 186.25-416 416c0 229.75 186.25 416 416 416v0c229.642-0.268 415.732-186.357 416-415.974v-0.026zM863.998 512c0 194.404-157.596 352-352 352s-352-157.596-352-352c0-194.404 157.596-352 352-352v0c194.313 0.226 351.774 157.687 352 351.978v0.022z" />
<glyph unicode="&#xeff2;" glyph-name="clock" data-tags="clock" d="M512 928c-229.75 0-416-186.25-416-416s186.25-416 416-416c229.75 0 416 186.25 416 416v0c-0.268 229.642-186.357 415.732-415.974 416h-0.026zM512 160c-194.404 0-352 157.596-352 352s157.596 352 352 352c194.404 0 352-157.596 352-352v0c-0.226-194.313-157.687-351.774-351.978-352h-0.022zM768 512c0 0 0-0.001 0-0.001 0-17.673-14.326-31.999-31.999-31.999 0 0-0.001 0-0.001 0h-224c0 0-0.001 0-0.001 0-17.673 0-31.999 14.326-31.999 31.999 0 0 0 0.001 0 0.001v0 224c0 17.673 14.327 32 32 32s32-14.327 32-32v0-192h192c0 0 0.001 0 0.001 0 17.673 0 31.999-14.326 31.999-31.999 0 0 0-0.001 0-0.001v0z" />
<glyph unicode="&#xf028;" glyph-name="device-mobile-camera" data-tags="device-mobile-camera" d="M704 960h-384c-52.994-0.063-95.937-43.006-96-95.994v-704.006c0.063-52.994 43.006-95.937 95.994-96h384.006c52.994 0.063 95.937 43.006 96 95.994v704.006c-0.063 52.994-43.006 95.937-95.994 96h-0.006zM736 160c-0.021-17.665-14.335-31.979-31.998-32h-384.002c-17.665 0.021-31.979 14.335-32 31.998v704.002c0.021 17.665 14.335 31.979 31.998 32h384.002c17.665-0.021 31.979-14.335 32-31.998v-0.002zM560 784c0-26.51-21.49-48-48-48s-48 21.49-48 48c0 26.51 21.49 48 48 48v0c26.498-0.030 47.97-21.502 48-47.997v-0.003z" />
<glyph unicode="&#xf047;" glyph-name="envelope-simple" data-tags="envelope-simple" d="M927.961 800.763q-0.020 0.888-0.090 1.772-0.056 0.722-0.143 1.435c-0.068 0.553-0.154 1.103-0.252 1.651-0.088 0.497-0.184 0.99-0.293 1.479-0.119 0.52-0.256 1.034-0.398 1.549-0.139 0.494-0.283 0.985-0.445 1.47-0.166 0.502-0.352 0.997-0.545 1.491-0.186 0.476-0.375 0.947-0.582 1.411-0.217 0.485-0.451 0.963-0.693 1.439-0.232 0.457-0.469 0.909-0.723 1.353-0.258 0.453-0.531 0.898-0.814 1.342-0.287 0.453-0.584 0.898-0.895 1.336-0.289 0.406-0.588 0.805-0.898 1.201-0.354 0.45-0.717 0.888-1.092 1.318-0.176 0.201-0.326 0.415-0.508 0.613-0.152 0.167-0.322 0.309-0.479 0.473-0.391 0.406-0.793 0.799-1.203 1.185-0.373 0.352-0.746 0.699-1.133 1.030-0.391 0.334-0.793 0.649-1.199 0.965-0.432 0.334-0.861 0.666-1.305 0.976-0.4 0.278-0.812 0.536-1.225 0.797-0.467 0.294-0.932 0.589-1.41 0.856-0.438 0.246-0.887 0.467-1.336 0.692-0.469 0.234-0.936 0.471-1.412 0.681-0.496 0.218-1.002 0.408-1.51 0.602-0.451 0.172-0.9 0.348-1.359 0.498-0.539 0.178-1.090 0.327-1.641 0.477-0.451 0.122-0.9 0.246-1.355 0.349-0.547 0.122-1.102 0.219-1.66 0.313-0.484 0.082-0.969 0.162-1.457 0.223-0.525 0.063-1.057 0.106-1.59 0.145-0.539 0.039-1.074 0.070-1.613 0.082-0.236 0.005-0.467 0.035-0.703 0.035h-768c-0.219 0-0.43-0.028-0.648-0.033-0.582-0.012-1.16-0.044-1.74-0.088-0.494-0.036-0.984-0.075-1.471-0.134-0.531-0.064-1.057-0.151-1.584-0.241-0.518-0.090-1.033-0.179-1.541-0.292-0.494-0.11-0.98-0.244-1.469-0.378-0.516-0.141-1.031-0.28-1.537-0.446-0.49-0.16-0.971-0.347-1.453-0.532-0.477-0.183-0.955-0.362-1.42-0.567-0.502-0.22-0.992-0.468-1.484-0.714-0.428-0.216-0.855-0.426-1.273-0.66-0.492-0.275-0.973-0.579-1.453-0.883-0.4-0.253-0.799-0.503-1.186-0.772-0.453-0.315-0.893-0.653-1.33-0.995-0.398-0.309-0.795-0.619-1.178-0.947-0.393-0.334-0.772-0.686-1.148-1.042-0.408-0.384-0.807-0.773-1.193-1.178-0.156-0.163-0.326-0.306-0.48-0.474-0.182-0.198-0.332-0.412-0.508-0.613-0.375-0.431-0.738-0.868-1.092-1.318-0.311-0.396-0.609-0.795-0.898-1.201-0.311-0.438-0.607-0.883-0.895-1.336-0.283-0.443-0.557-0.889-0.814-1.342-0.254-0.443-0.49-0.896-0.723-1.353-0.242-0.477-0.477-0.954-0.693-1.439-0.207-0.464-0.396-0.936-0.582-1.411-0.193-0.494-0.379-0.989-0.545-1.491-0.162-0.484-0.307-0.976-0.445-1.47-0.143-0.515-0.279-1.029-0.398-1.549-0.109-0.488-0.205-0.981-0.293-1.479-0.098-0.549-0.184-1.099-0.252-1.651q-0.088-0.713-0.143-1.435-0.070-0.886-0.090-1.772c-0.005-0.256-0.039-0.505-0.039-0.763v-544c0.042-35.329 28.671-63.958 63.996-64h704.004c35.329 0.042 63.958 28.671 64 63.996v544.004c0 0.258-0.033 0.507-0.039 0.763zM813.732 768l-301.732-276.59-301.732 276.59zM864 256h-704v471.254l330.375-302.844c5.675-5.214 13.277-8.41 21.625-8.41s15.95 3.196 21.648 8.431l-0.023-0.021 330.381 302.85 0.033-471.258z" />
<glyph unicode="&#xf049;" glyph-name="equals" data-tags="equals" d="M896 384c0-17.673-14.327-32-32-32h-704c-17.673 0-32 14.327-32 32s14.327 32 32 32v0h704c17.673 0 32-14.327 32-32v0zM160 608h704c17.673 0 32 14.327 32 32s-14.327 32-32 32v0h-704c-17.673 0-32-14.327-32-32s14.327-32 32-32v0z" />
<glyph unicode="&#xf04b;" glyph-name="eye" data-tags="eye" d="M989.242 524.998c-1.406 3.16-35.277 78.305-110.613 153.645-100.336 100.348-227.117 153.391-366.629 153.391s-266.293-53.043-366.629-153.391c-75.336-75.34-109.207-150.484-110.613-153.645-1.742-3.823-2.757-8.291-2.757-12.996s1.015-9.173 2.838-13.197l-0.082 0.201c1.406-3.164 35.281-78.289 110.617-153.617 100.336-100.324 227.113-153.355 366.625-153.355s266.289 53.031 366.625 153.355c75.336 75.328 109.211 150.453 110.617 153.617 1.742 3.823 2.757 8.291 2.757 12.996s-1.015 9.173-2.838 13.197l0.082-0.201zM512 256.033c-123.121 0-230.695 44.742-319.738 132.984-35.74 35.475-66.464 75.93-91.063 120.254l-1.39 2.73c25.988 47.067 56.713 87.532 92.422 122.984l0.032 0.031c89.043 88.262 196.621 133.016 319.738 133.016s230.695-44.754 319.738-133.016c35.742-35.484 66.469-75.95 91.066-120.287l1.391-2.732c-28.852-53.801-154.469-255.965-412.195-255.965zM512 703.998c-106.039 0-192-85.961-192-192s85.961-192 192-192c106.039 0 192 85.961 192 192v0c-0.122 105.99-86.011 191.878-191.988 192h-0.012zM512 383.998c-70.692 0-128 57.308-128 128s57.308 128 128 128c70.692 0 128-57.308 128-128v0c-0.083-70.659-57.341-127.917-127.992-128h-0.008z" />
<glyph unicode="&#xf04d;" glyph-name="eyedropper" data-tags="eyedropper" d="M895.986 753.984c-0.445 40.475-17.643 76.847-44.974 102.577l-0.073 0.068c-56.072 53.082-146.873 51.084-202.41-4.453l-87.793-87.795c-17.015 15.543-39.761 25.065-64.731 25.065-26.503 0-50.5-10.726-67.888-28.075l-28.117-28.117c-11.564-11.59-18.715-27.587-18.715-45.254s7.151-33.665 18.716-45.255l8.235-8.235-201.375-201.373c-28.932-29.045-46.819-69.109-46.819-113.352 0-10.514 1.010-20.793 2.939-30.744l-0.163 1.011-39.131-89.635c-2.94-6.494-4.654-14.081-4.654-22.068 0-15.169 6.18-28.895 16.16-38.797l0.003-0.003c11.522-11.605 27.478-18.794 45.114-18.813h0.003c9.316 0.012 18.164 2.003 26.15 5.575l-0.408-0.163 83.996 36.67c8.941-1.766 19.22-2.777 29.736-2.777 44.242 0 84.306 17.888 113.353 46.827l201.368 201.368 8.236-8.236c11.59-11.564 27.587-18.715 45.254-18.715s33.665 7.151 45.255 18.716l28.118 28.118c17.347 17.385 28.074 41.383 28.074 67.886 0 24.97-9.522 47.716-25.133 64.805l0.067-0.074 89.441 89.441c26.057 25.887 42.185 61.741 42.185 101.362 0 0.86-0.008 1.717-0.023 2.573l0.002-0.129zM387.883 252.117c-17.428-17.359-41.467-28.090-68.012-28.090-8.802 0-17.328 1.18-25.429 3.39l0.676-0.157c-2.475 0.687-5.318 1.082-8.252 1.082-4.631 0-9.033-0.983-13.008-2.752l0.204 0.081-85.885-37.494 37.494 85.885c1.689 3.771 2.672 8.172 2.672 12.803 0 2.935-0.395 5.778-1.135 8.478l0.052-0.225c-2.052 7.424-3.231 15.949-3.231 24.749 0 26.547 10.731 50.587 28.092 68.020l201.37 201.37 135.766-135.766zM808.568 695.432l-112-112c-5.791-5.79-9.374-13.79-9.374-22.627s3.582-16.837 9.374-22.627l19.551-19.551c5.782-5.795 9.357-13.793 9.357-22.627s-3.575-16.832-9.358-22.628l-28.118-28.118-242.746 242.746 28.119 28.119c5.795 5.782 13.793 9.357 22.627 9.357s16.832-3.575 22.628-9.358l19.55-19.55c5.791-5.791 13.79-9.373 22.627-9.373s16.836 3.582 22.627 9.373l110.352 110.354c31.26 31.256 82.020 32.709 113.158 3.229 15.446-14.617 25.059-35.261 25.059-58.15 0-22.091-8.954-42.091-23.432-56.569v0z" />
<glyph unicode="&#xf04e;" glyph-name="eye-slash" data-tags="eye-slash" d="M215.68 885.521c-5.876 6.446-14.307 10.475-23.68 10.475-17.674 0-32.002-14.328-32.002-32.002 0-8.302 3.161-15.866 8.346-21.553l-0.023 0.025 76.945-84.641c-145.269-89.164-207.729-226.58-210.508-232.836-1.742-3.823-2.757-8.291-2.757-12.996s1.015-9.173 2.838-13.197l-0.082 0.201c1.406-3.164 35.281-78.289 110.617-153.617 100.336-100.324 227.113-153.356 366.625-153.356 0.88-0.006 1.921-0.009 2.963-0.009 74.301 0 144.875 15.956 208.483 44.628l-3.204-1.292 88.079-96.887c5.876-6.446 14.307-10.475 23.68-10.475 17.674 0 32.002 14.328 32.002 32.002 0 8.302-3.161 15.866-8.346 21.553l0.023-0.025zM404.983 582.138l166.696-183.367c-17.309-9.319-37.878-14.795-59.726-14.795-70.666 0-127.953 57.286-127.953 127.953 0 26.13 7.832 50.43 21.278 70.682l-0.295-0.472zM512 256.025c-123.121 0-230.695 44.742-319.738 132.984-35.734 35.469-66.454 75.918-91.051 120.234l-1.391 2.73c18.925 35.211 79.18 133.826 189.351 197.555l71.841-79.023c-25.557-32.303-40.998-73.631-40.998-118.566 0-106.009 85.937-191.946 191.946-191.946 38.512 0 74.375 11.342 104.43 30.868l-0.745-0.454 58.885-64.773c-47.527-18.747-102.577-29.616-160.165-29.616-0.832 0-1.663 0.002-2.494 0.007l0.128-0.001zM989.242 498.998c-1.68-3.781-42.191-93.496-133.457-175.234-5.637-5.065-13.131-8.162-21.348-8.162-17.672 0-31.998 14.326-31.998 31.998 0 9.455 4.101 17.952 10.621 23.81l0.029 0.026c43.988 39.758 81.005 86.169 109.706 137.836l1.392 2.73c-25.985 47.064-56.709 87.527-92.417 122.976l-0.032 0.032c-89.043 88.262-196.621 133.016-319.738 133.016-0.19 0-0.415 0-0.639 0-27.131 0-53.727-2.29-79.605-6.688l2.783 0.391c-1.584-0.278-3.408-0.437-5.27-0.437-17.673 0-31.999 14.327-31.999 31.999 0 15.812 11.468 28.945 26.54 31.536l0.19 0.027c26.274 4.564 56.53 7.172 87.396 7.172 0.212 0 0.425 0 0.637 0h-0.033c139.512 0 266.293-53.043 366.629-153.391 75.336-75.34 109.207-150.484 110.613-153.645 1.742-3.823 2.757-8.291 2.757-12.996s-1.015-9.173-2.838-13.197l0.082 0.201zM536.121 637.732c-14.906 2.922-25.998 15.881-25.998 31.431 0 17.673 14.326 31.999 31.999 31.999 2.113 0 4.179-0.205 6.178-0.596l-0.202 0.033c83.292-16.599 146.543-85.116 155.001-169.773l0.065-0.805c0.088-0.89 0.138-1.923 0.138-2.969 0-16.628-12.68-30.295-28.899-31.857l-0.13-0.010c-1.008-0.094-2.016-0.141-3.012-0.141-16.61 0.024-30.253 12.697-31.814 28.901l-0.010 0.13c-5.678 56.942-47.821 102.595-102.497 113.52l-0.819 0.137z" />
<glyph unicode="&#xf052;" glyph-name="faders-horizontal" data-tags="faders-horizontal" d="M575.996 336.026c0-17.673-14.327-32-32-32h-384c-17.673 0-32 14.327-32 32s14.327 32 32 32v0h384c17.673 0 32-14.327 32-32v0zM863.996 368.026h-160v64c0 17.673-14.327 32-32 32s-32-14.327-32-32v0-192c0-17.673 14.327-32 32-32s32 14.327 32 32v0 64h160c17.673 0 32 14.327 32 32s-14.327 32-32 32v0zM159.996 656.030l128-0.004c17.673 0 32 14.327 32 32s-14.327 32-32 32v0l-128 0.004c-17.673 0-32-14.327-32-32s14.327-32 32-32v0zM415.996 560.026c17.673 0 32 14.327 32 32v0 64l416 0.004c17.673 0 32 14.327 32 32s-14.327 32-32 32v0l-416-0.004v64c0 17.673-14.327 32-32 32s-32-14.327-32-32v0-192c0-17.673 14.327-32 32-32v0z" />
<glyph unicode="&#xf05b;" glyph-name="file-text" data-tags="file-text" d="M864.031 672c0 0.007 0 0.015 0 0.023 0 8.999-3.728 17.127-9.723 22.925l-223.673 223.673q-1.11 1.111-2.328 2.109c-0.187 0.155-0.393 0.287-0.584 0.437-0.631 0.495-1.268 0.984-1.934 1.432-0.176 0.116-0.359 0.213-0.537 0.326-0.703 0.452-1.416 0.893-2.156 1.29-0.127 0.068-0.26 0.122-0.389 0.188-0.797 0.414-1.607 0.807-2.441 1.155-0.090 0.037-0.184 0.063-0.273 0.1-0.873 0.354-1.76 0.679-2.67 0.956-0.098 0.029-0.199 0.047-0.297 0.076-0.896 0.263-1.803 0.501-2.729 0.686-0.256 0.052-0.52 0.073-0.777 0.118-0.768 0.134-1.537 0.27-2.324 0.348q-1.585 0.159-3.196 0.161h-384.031c-35.329-0.042-63.958-28.671-64-63.996v-704.004c0.042-35.329 28.671-63.958 63.996-64h576.035c35.329 0.042 63.958 28.671 64 63.996v511.366c0.004 0.214 0.031 0.423 0.031 0.638zM640 818.745l114.746-114.745h-114.746zM800 160h-576.031v704h352.031v-192c0 0 0-0.001 0-0.001 0-17.673 14.326-31.999 31.999-31.999 0 0 0.001 0 0.001 0h192.002l0.039-479.998zM672 480c0 0 0-0.001 0-0.001 0-17.673-14.326-31.999-31.999-31.999 0 0-0.001 0-0.001 0h-256c-17.673 0-32 14.327-32 32s14.327 32 32 32v0h256c0 0 0.001 0 0.001 0 17.673 0 31.999-14.326 31.999-31.999 0 0 0-0.001 0-0.001v0zM672 352c0 0 0-0.001 0-0.001 0-17.673-14.326-31.999-31.999-31.999 0 0-0.001 0-0.001 0h-256c-17.673 0-32 14.327-32 32s14.327 32 32 32v0h256c0 0 0.001 0 0.001 0 17.673 0 31.999-14.326 31.999-31.999 0 0 0-0.001 0-0.001v0z" />
<glyph unicode="&#xf078;" glyph-name="funnel" data-tags="funnel" d="M448.008 91.773c-35.346 0.022-63.992 28.673-64.008 64.018v311.838l-263.018 289.316c-10.323 11.323-16.645 26.45-16.645 43.053 0 35.347 28.654 64.001 64 64.002h687.324c35.346 0 64-28.654 64-64.001 0-16.602-6.321-31.727-16.688-43.101l0.046 0.051-263.020-289.324v-226.5c0-0.020 0-0.045 0-0.069 0-22.096-11.22-41.572-28.273-53.040l-0.229-0.145-127.998-85.328c-9.97-6.744-22.261-10.766-35.491-10.77h-0.001zM168.359 800l262.996-289.32c10.322-11.303 16.645-26.411 16.645-42.996 0-0.019 0-0.039 0-0.058v0.003-311.836l128 85.332v226.504c0 0.016 0 0.034 0 0.053 0 16.589 6.326 31.701 16.697 43.055l-0.044-0.049 262.994 289.297zM855.938 799.984v0z" />
<glyph unicode="&#xf0a1;" glyph-name="heart" data-tags="heart" d="M512 128c-0.001 0-0.003 0-0.004 0-5.743 0-11.132 1.513-15.791 4.162l0.158-0.083c-17 9.52-416.363 236.47-416.363 523.92 0.046 132.558 107.517 240 240.082 240 78.188 0 147.647-37.377 191.483-95.238l0.435-0.6c44.271 58.46 113.73 95.837 191.918 95.837 132.565 0 240.035-107.442 240.082-239.995v-0.005c0-122.26-70.855-248.020-210.594-373.786-60.677-54.578-128.006-104.196-199.915-146.915l-5.854-3.22c-4.501-2.567-9.89-4.080-15.633-4.080-0.001 0-0.003 0-0.004 0v0zM496.363 187.92v0zM320 832c-97.157-0.113-175.887-78.844-176-175.989v-0.011c0-220.98 295.922-414.875 367.988-458.803 72.043 43.98 368.012 238.154 368.012 458.803-0.019 97.206-78.825 176-176.034 176-72.736 0-135.169-44.115-162.003-107.048l-0.436-1.15c-4.959-11.646-16.307-19.662-29.527-19.662s-24.568 8.016-29.448 19.453l-0.079 0.209c-27.153 64.071-89.514 108.198-162.182 108.198-0.102 0-0.204 0-0.306 0h0.016z" />
<glyph unicode="&#xf0aa;" glyph-name="hourglass-medium" data-tags="hourglass-medium" d="M800 721.436v142.564c-0.042 35.329-28.671 63.958-63.996 64h-448.004c-35.329-0.042-63.958-28.671-64-63.996v-144.004c0.050-20.855 10.021-39.37 25.441-51.083l0.159-0.116 209.068-156.801-209.066-156.801c-15.58-11.828-25.551-30.344-25.602-51.191v-144.008c0.042-35.329 28.671-63.958 63.996-64h448.004c35.329 0.042 63.958 28.671 64 63.996v142.568c-0.056 20.769-9.944 39.217-25.252 50.943l-0.154 0.113-209.527 158.379 209.527 158.381c15.463 11.838 25.35 30.286 25.406 51.046v0.009zM288 864h448v-142.566l-23.041-17.416h-403.648l-21.311 15.982zM511.924 552.057l-117.281 87.961h233.648zM736 160h-448v144l192 144v-95.982c0-17.673 14.327-32 32-32s32 14.327 32 32v0 95.68l192-145.133z" />
<glyph unicode="&#xf0b5;" glyph-name="info" data-tags="info" d="M511.998 928.001c-229.75 0-416-186.25-416-416s186.25-416 416-416c229.75 0 416 186.25 416 416v0c-0.268 229.642-186.357 415.732-415.974 416h-0.026zM511.998 160.001c-194.404 0-352 157.596-352 352s157.596 352 352 352c194.404 0 352-157.596 352-352v0c-0.226-194.313-157.687-351.774-351.978-352h-0.022zM575.998 320.001c-0.001-17.673-14.327-31.999-32-32h-32c-17.673 0.001-31.999 14.327-32 32v0 192c-17.673 0-32 14.327-32 32s14.327 32 32 32v0h32c17.673-0.001 31.999-14.327 32-32v0-192c17.673-0.001 31.999-14.327 32-32v0zM478.057 654.060c-8.685 8.686-14.057 20.686-14.057 33.94 0 26.51 21.491 48.001 48.001 48.001s48.001-21.49 48.001-48v0-0.016c-0.011-26.503-21.498-47.984-48.003-47.984-13.255 0-25.255 5.372-33.942 14.059v0z" />
<glyph unicode="&#xf0bf;" glyph-name="lifebuoy" data-tags="lifebuoy" d="M808.643 220.668c73.791 74.907 119.357 177.798 119.357 291.332s-45.566 216.425-119.408 291.383l0.051-0.051c-1.559 2.004-3.303 3.748-5.24 5.257l-0.066 0.050c-74.908 73.794-177.8 119.361-291.336 119.361s-216.428-45.568-291.387-119.412l0.051 0.051c-2.003-1.559-3.748-3.303-5.257-5.24l-0.050-0.066c-73.791-74.907-119.357-177.798-119.357-291.332s45.566-216.425 119.408-291.383l-0.051 0.051c0.813-1.034 1.626-1.955 2.489-2.827l-0.003 0.003c0.868-0.86 1.789-1.673 2.753-2.432l0.069-0.052c74.907-73.793 177.799-119.359 291.334-119.359s216.426 45.567 291.385 119.409l-0.051-0.050c1.034 0.811 1.954 1.624 2.825 2.487l-0.003-0.003c0.86 0.869 1.674 1.79 2.434 2.755l0.053 0.069zM782.381 286.877l-113.973 113.973c22.254 30.868 35.592 69.452 35.592 111.15s-13.338 80.283-35.98 111.717l0.389-0.567 113.973 113.973c50.775-60.496 81.619-139.207 81.619-225.123s-30.844-164.627-82.063-225.666l0.443 0.543zM384 512c0 70.692 57.308 128 128 128s128-57.308 128-128c0-70.692-57.308-128-128-128v0c-70.659 0.083-127.917 57.341-128 127.992v0.008zM737.123 782.381l-113.973-113.973c-30.868 22.254-69.452 35.592-111.15 35.592s-80.283-13.338-111.717-35.98l0.567 0.389-113.973 113.973c60.496 50.775 139.207 81.619 225.123 81.619s164.627-30.844 225.666-82.063l-0.543 0.443zM241.619 737.123l113.973-113.973c-22.254-30.868-35.592-69.452-35.592-111.15s13.338-80.283 35.98-111.717l-0.389 0.567-113.973-113.973c-50.775 60.496-81.619 139.207-81.619 225.123s30.844 164.627 82.063 225.666l-0.443-0.543zM286.877 241.619l113.973 113.973c30.868-22.254 69.452-35.592 111.15-35.592s80.283 13.338 111.717 35.98l-0.567-0.389 113.973-113.973c-60.496-50.775-139.207-81.619-225.123-81.619s-164.627 30.844-225.666 82.063l0.543-0.443z" />
<glyph unicode="&#xf0c7;" glyph-name="link-simple" data-tags="link-simple" d="M670.377 670.43c5.791-5.792 9.372-13.792 9.372-22.629s-3.581-16.837-9.372-22.629l-271.527-271.527c-5.796-5.821-13.817-9.424-22.679-9.424-17.674 0-32.002 14.328-32.002 32.002 0 8.862 3.602 16.883 9.423 22.678l271.528 271.528c5.792 5.789 13.792 9.369 22.629 9.369s16.837-3.58 22.629-9.369v0zM557.229 330.988l-113.137-113.137c-28.95-28.932-68.935-46.826-113.099-46.826-88.364 0-159.997 71.633-159.997 159.997 0 44.164 17.894 84.149 46.827 113.1l113.136 113.136c5.791 5.791 9.373 13.792 9.373 22.629 0 17.674-14.328 32.002-32.002 32.002-8.837 0-16.838-3.582-22.629-9.373v0l-113.137-113.137c-40.536-40.536-65.608-96.536-65.608-158.393 0-123.712 100.289-224.001 224.001-224.001 61.856 0 117.856 25.072 158.393 65.608v0l113.137 113.137c5.791 5.791 9.373 13.792 9.373 22.629 0 17.674-14.328 32.002-32.002 32.002-8.837 0-16.838-3.582-22.629-9.373v0zM851.408 851.438c-40.537 40.534-96.537 65.605-158.393 65.605s-117.856-25.071-158.393-65.606l-113.137-113.137c-5.815-5.795-9.414-13.812-9.414-22.669 0-17.674 14.328-32.002 32.002-32.002 8.857 0 16.874 3.598 22.668 9.413l113.138 113.138c28.954 28.954 68.953 46.862 113.135 46.862 88.364 0 159.997-71.633 159.997-159.997 0-44.182-17.908-84.181-46.862-113.135l-113.137-113.137c-5.791-5.791-9.373-13.792-9.373-22.629 0-17.674 14.328-32.002 32.002-32.002 8.837 0 16.838 3.582 22.629 9.373l113.137 113.137c40.474 40.565 65.502 96.556 65.502 158.393s-25.028 117.828-65.506 158.397l0.004-0.004z" />
<glyph unicode="&#xf0cb;" glyph-name="list" data-tags="list" d="M896 511.999c0-17.673-14.327-32-32-32h-704c-17.673 0-32 14.327-32 32s14.327 32 32 32v0h704c17.673 0 32-14.327 32-32v0zM160 735.999h704c17.673 0 32 14.327 32 32s-14.327 32-32 32v0h-704c-17.673 0-32-14.327-32-32s14.327-32 32-32v0zM864 287.999h-704c-17.673 0-32-14.327-32-32s14.327-32 32-32v0h704c17.673 0 32 14.327 32 32s-14.327 32-32 32v0z" />
<glyph unicode="&#xf0da;" glyph-name="magnifying-glass" data-tags="magnifying-glass" d="M918.602 150.626l-172.891 172.891c53.666 63.581 86.283 146.447 86.283 236.931 0 203.487-164.959 368.445-368.445 368.445s-368.445-164.959-368.445-368.445c0-203.487 164.959-368.445 368.445-368.445 90.472 0 173.327 32.608 237.455 86.713l-0.551-0.453 172.891-172.891c5.791-5.792 13.792-9.374 22.629-9.374 17.673 0 32.001 14.327 32.001 32.001 0 8.836-3.581 16.836-9.372 22.627v0zM159.999 560.002c0 167.894 136.105 303.999 303.999 303.999s303.999-136.105 303.999-303.999c0-167.894-136.105-303.999-303.999-303.999v0c-167.815 0.196-303.803 136.184-303.999 303.98v0.019z" />
<glyph unicode="&#xf0e9;" glyph-name="minus" data-tags="minus" d="M864 480h-704c-17.673 0-32 14.327-32 32s14.327 32 32 32v0h704c17.673 0 32-14.327 32-32s-14.327-32-32-32v0z" />
<glyph unicode="&#xf143;" glyph-name="plus" data-tags="plus" d="M896 512c0 0 0-0.001 0-0.001 0-17.673-14.326-31.999-31.999-31.999 0 0-0.001 0-0.001 0h-320v-320c0-17.673-14.327-32-32-32s-32 14.327-32 32v0 320h-320c-17.673 0-32 14.327-32 32s14.327 32 32 32v0h320v320c0 17.673 14.327 32 32 32s32-14.327 32-32v0-320h320c0 0 0.001 0 0.001 0 17.673 0 31.999-14.326 31.999-31.999 0 0 0-0.001 0-0.001v0z" />
<glyph unicode="&#xf171;" glyph-name="shopping-bag-open" data-tags="shopping-bag-open" d="M864 864h-704c-35.329-0.042-63.958-28.671-64-63.996v-576.004c0.042-35.329 28.671-63.958 63.996-64h704.004c35.329 0.042 63.958 28.671 64 63.996v576.004c-0.042 35.329-28.671 63.958-63.996 64h-0.004zM864 800l0.004-64h-704.004v64zM864 224h-704v448h704.008l0.031-447.998zM704 576c0-106.039-85.961-192-192-192s-192 85.961-192 192v0c0 17.673 14.327 32 32 32s32-14.327 32-32v0c0-70.692 57.308-128 128-128s128 57.308 128 128v0c0 17.673 14.327 32 32 32s32-14.327 32-32v0z" />
<glyph unicode="&#xf173;" glyph-name="shopping-cart-simple" data-tags="shopping-cart-simple" d="M384 160c0-35.346-28.654-64-64-64s-64 28.654-64 64c0 35.346 28.654 64 64 64v0c35.346 0 64-28.654 64-64v0zM736 224c-35.346 0-64-28.654-64-64s28.654-64 64-64c35.346 0 64 28.654 64 64v0c0 35.346-28.654 64-64 64v0zM917.625 727.209l-105.594-369.582c-11.969-40.449-48.727-69.484-92.288-69.627h-383.47c-43.579 0.143-80.337 29.179-92.131 68.947l-0.174 0.682-105.422 368.975c-0.121 0.391-0.23 0.783-0.336 1.178l-38.922 136.219h-67.289c-17.673 0-32 14.327-32 32s14.327 32 32 32v0h67.289c29.051-0.097 53.556-19.452 61.423-45.961l0.116-0.455 32.453-113.584h693.574c17.673-0.001 32-14.328 32-32.002 0-3.13-0.449-6.156-1.287-9.015l0.057 0.226zM844.434 704h-632.867l93.941-328.791c3.988-13.483 16.24-23.162 30.76-23.209h383.459c14.525 0.047 26.777 9.725 30.708 22.98l0.058 0.227z" />
<glyph unicode="&#xf199;" glyph-name="spinner" data-tags="spinner" d="M544 896v-128c0-17.673-14.327-32-32-32s-32 14.327-32 32v0 128c0 17.673 14.327 32 32 32s32-14.327 32-32v0zM693.020 661.020c0.012 0 0.026 0 0.040 0 8.824 0 16.812 3.582 22.588 9.371l90.509 90.509c5.791 5.791 9.373 13.792 9.373 22.629 0 17.674-14.328 32.002-32.002 32.002-8.837 0-16.838-3.582-22.629-9.373l-90.508-90.508c-5.792-5.791-9.374-13.792-9.374-22.629 0-17.673 14.327-32 32-32 0.001 0 0.002 0 0.003 0v0zM896 544h-128c-17.673 0-32-14.327-32-32s14.327-32 32-32v0h128c17.673 0 32 14.327 32 32s-14.327 32-32 32v0zM715.648 353.609c-5.791 5.791-13.792 9.373-22.629 9.373-17.674 0-32.002-14.328-32.002-32.002 0-8.837 3.582-16.838 9.373-22.629l90.508-90.508c5.791-5.791 13.792-9.373 22.629-9.373 17.674 0 32.002 14.328 32.002 32.002 0 8.837-3.582 16.838-9.373 22.629v0zM512 288c-17.673-0.001-31.999-14.327-32-32v0-128c0-17.673 14.327-32 32-32s32 14.327 32 32v0 128c-0.001 17.673-14.327 31.999-32 32v0zM308.352 353.609l-90.508-90.508c-5.791-5.791-9.373-13.792-9.373-22.629 0-17.674 14.328-32.002 32.002-32.002 8.837 0 16.838 3.582 22.629 9.373l90.508 90.508c5.791 5.791 9.373 13.792 9.373 22.629 0 17.674-14.328 32.002-32.002 32.002-8.837 0-16.838-3.582-22.629-9.373v0zM288 512c-0.001 17.673-14.327 31.999-32 32h-128c-17.673 0-32-14.327-32-32s14.327-32 32-32v0h128c17.673 0.001 31.999 14.327 32 32v0zM263.102 806.156c-5.791 5.791-13.792 9.373-22.629 9.373-17.674 0-32.002-14.328-32.002-32.002 0-8.837 3.582-16.838 9.373-22.629l90.508-90.508c5.787-5.767 13.771-9.332 22.587-9.332 17.674 0 32.002 14.328 32.002 32.002 0 8.817-3.565 16.8-9.333 22.588l0.001-0.001z" />
<glyph unicode="&#xf19e;" glyph-name="squares-four" data-tags="squares-four" d="M448 864h-256c0 0 0 0 0 0-17.673 0-32-14.327-32-32 0 0 0 0 0 0v0-256c0 0 0 0 0 0 0-17.673 14.327-32 32-32 0 0 0 0 0 0h256c0 0 0 0 0 0 17.673 0 32 14.327 32 32 0 0 0 0 0 0v0 256c0 0 0 0 0 0 0 17.673-14.327 32-32 32 0 0 0 0 0 0v0zM416 608h-192v192h192zM832 864h-256c0 0 0 0 0 0-17.673 0-32-14.327-32-32 0 0 0 0 0 0v0-256c0 0 0 0 0 0 0-17.673 14.327-32 32-32 0 0 0 0 0 0h256c0 0 0 0 0 0 17.673 0 32 14.327 32 32 0 0 0 0 0 0v0 256c0 0 0 0 0 0 0 17.673-14.327 32-32 32 0 0 0 0 0 0v0zM800 608h-192v192h192zM448 480h-256c0 0 0 0 0 0-17.673 0-32-14.327-32-32 0 0 0 0 0 0v0-256c0 0 0-0.001 0-0.001 0-17.673 14.326-31.999 31.999-31.999 0 0 0.001 0 0.001 0h256c0 0 0.001 0 0.001 0 17.673 0 31.999 14.326 31.999 31.999 0 0 0 0.001 0 0.001v0 256c0 0 0 0 0 0 0 17.673-14.327 32-32 32 0 0 0 0 0 0v0zM416 224h-192v192h192zM832 480h-256c0 0 0 0 0 0-17.673 0-32-14.327-32-32 0 0 0 0 0 0v0-256c0 0 0-0.001 0-0.001 0-17.673 14.326-31.999 31.999-31.999 0 0 0.001 0 0.001 0h256c0 0 0.001 0 0.001 0 17.673 0 31.999 14.326 31.999 31.999 0 0 0 0.001 0 0.001v0 256c0 0 0 0 0 0 0 17.673-14.327 32-32 32 0 0 0 0 0 0v0zM800 224h-192v192h192z" />
<glyph unicode="&#xf1a1;" glyph-name="star" data-tags="star" d="M749.051 96.066c-12.916 0.014-24.945 3.798-35.049 10.312l0.256-0.155-201.738 127.813c-0.143 0.107-0.324 0.171-0.52 0.171s-0.376-0.064-0.522-0.173l0.002 0.002-187.48-118.778c-10.84-7.016-24.089-11.186-38.313-11.186-15.797 0-30.393 5.144-42.203 13.849l0.196-0.138c-18.497 13.51-30.378 35.123-30.378 59.51 0 6.596 0.869 12.988 2.499 19.070l-0.117-0.514 54.055 212.64c0.071 0.247 0.112 0.53 0.112 0.823 0 0.861-0.352 1.639-0.92 2.199v0l-180.914 150.575c-14.74 12.308-24.050 30.69-24.050 51.248 0 7.509 1.242 14.728 3.532 21.462l-0.139-0.469c8.219 25.33 30.794 43.66 57.893 45.494l0.201 0.011 236.258 15.333c0.64 0.161 1.138 0.644 1.317 1.263l0.003 0.013 88.117 221.897c9.73 24.587 33.297 41.661 60.851 41.661s51.122-17.075 60.697-41.221l0.154-0.442 88.117-221.891c0.181-0.632 0.677-1.117 1.304-1.278l0.013-0.003 236.262-15.333c27.3-1.845 49.875-20.176 57.964-45.042l0.13-0.463c2.152-6.265 3.394-13.484 3.394-20.993 0-20.557-9.31-38.939-23.944-51.161l-0.106-0.086-180.91-150.574c-0.569-0.559-0.922-1.337-0.922-2.197 0-0.295 0.042-0.581 0.119-0.851l-0.005 0.022 58.285-229.288c1.367-5.037 2.152-10.82 2.152-16.787 0-22.089-10.763-41.664-27.331-53.767l-0.188-0.131c-10.549-7.764-23.794-12.432-38.129-12.449h-0.004zM512 298.138c0.026 0 0.056 0 0.087 0 12.864 0 24.855-3.74 34.943-10.192l-0.261 0.156v-0.001l201.742-127.815c0.167-0.119 0.36-0.218 0.566-0.29l0.016-0.005c0.498 0.255 0.91 0.616 1.216 1.056l0.007 0.011c0.255 0.394 0.406 0.875 0.406 1.391 0 0.356-0.072 0.694-0.202 1.003l0.006-0.017-58.289 229.289c-1.31 4.96-2.062 10.655-2.062 16.525 0 20.603 9.266 39.043 23.857 51.378l0.099 0.082 180.906 150.572c0.629 0.475 1.031 1.222 1.031 2.063 0 0.431-0.106 0.836-0.292 1.193l0.007-0.014c-0.453 1.387-0.926 1.418-1.387 1.448l-236.258 15.333c-25.78 1.896-47.295 18.342-56.498 41.087l-0.158 0.443-88.117 221.887c-0.508 1.282-0.832 1.282-1.367 1.282s-0.859 0-1.367-1.28l-88.117-221.894c-9.364-23.186-30.88-39.629-56.443-41.512l-0.217-0.013-236.254-15.333c-0.461-0.030-0.934-0.061-1.387-1.448-0.18-0.343-0.285-0.749-0.285-1.179 0-0.841 0.402-1.588 1.025-2.058l0.006-0.005 180.91-150.573c14.69-12.419 23.955-30.859 23.955-51.462 0-5.868-0.751-11.56-2.163-16.986l0.103 0.468-54.059-212.643c-0.28-0.848-0.441-1.823-0.441-2.837 0-3.154 1.564-5.943 3.959-7.633l0.029-0.020c1.185-1.003 2.731-1.613 4.419-1.613 1.533 0 2.949 0.503 4.092 1.353l-0.018-0.013 187.484 118.78c9.828 6.297 21.818 10.037 34.682 10.037 0.031 0 0.061 0 0.092 0h-0.005z" />
<glyph unicode="&#xf1b6;" glyph-name="text-align-left" data-tags="text-align-left" d="M128 752c0 17.673 14.327 32 32 32h704c17.673 0 32-14.327 32-32s-14.327-32-32-32v0h-704c-17.673 0-32 14.327-32 32v0zM160 560h512c17.673 0 32 14.327 32 32s-14.327 32-32 32v0h-512c-17.673 0-32-14.327-32-32s14.327-32 32-32v0zM864 464h-703.977c-17.673 0-32-14.327-32-32s14.327-32 32-32v0h703.977c17.673 0 32 14.327 32 32s-14.327 32-32 32v0zM672 304h-511.977c-17.673 0-32-14.327-32-32s14.327-32 32-32v0h511.977c17.673 0 32 14.327 32 32s-14.327 32-32 32v0z" />
<glyph unicode="&#xf1b7;" glyph-name="text-align-right" data-tags="text-align-right" d="M128 752c0 17.673 14.327 32 32 32h704c17.673 0 32-14.327 32-32s-14.327-32-32-32v0h-704c-17.673 0-32 14.327-32 32v0zM864 624h-512c-17.673 0-32-14.327-32-32s14.327-32 32-32v0h512c17.673 0 32 14.327 32 32s-14.327 32-32 32v0zM864 464h-703.977c-17.673 0-32-14.327-32-32s14.327-32 32-32v0h703.977c17.673 0 32 14.327 32 32s-14.327 32-32 32v0zM864 304h-511.977c-17.673 0-32-14.327-32-32s14.327-32 32-32v0h511.977c17.673 0 32 14.327 32 32s-14.327 32-32 32v0z" />
<glyph unicode="&#xf1de;" glyph-name="user" data-tags="user" d="M927.746 176.055c-59.928 101.913-153.455 178.604-265.076 215.593l-3.404 0.977c84.856 51.137 140.734 142.793 140.734 247.501 0 159.058-128.942 288-288 288s-288-128.942-288-288c0-104.708 55.878-196.365 139.441-246.777l1.293-0.724c-115.021-37.966-208.546-114.654-267.246-214.308l-1.228-2.254c-2.704-4.596-4.302-10.124-4.302-16.025 0-17.673 14.327-31.999 31.999-31.999 11.771 0 22.058 6.356 27.616 15.823l0.082 0.15c73.304 125.219 207.159 207.988 360.346 207.988 153.19 0 287.048-82.773 359.288-206.034l1.063-1.962c5.637-9.627 15.929-15.99 27.707-15.99 17.673 0 31.999 14.327 31.999 31.999 0 5.908-1.601 11.442-4.393 16.192l0.082-0.15zM288 640c0 123.712 100.288 224 224 224s224-100.288 224-224c0-123.712-100.288-224-224-224v0c-123.654 0.145-223.855 100.346-224 223.986v0.014z" />
<glyph unicode="&#xf1f0;" glyph-name="warning-circle" data-tags="warning-circle" d="M512 928c-229.75 0-416-186.25-416-416s186.25-416 416-416c229.75 0 416 186.25 416 416v0c-0.268 229.643-186.358 415.733-415.975 416h-0.025zM512 160c-194.404 0-352 157.596-352 352s157.596 352 352 352c194.404 0 352-157.596 352-352v0c-0.226-194.313-157.687-351.774-351.978-352h-0.022zM480 480v224c0 17.673 14.327 32 32 32s32-14.327 32-32v0-224c0-17.673-14.327-32-32-32s-32 14.327-32 32v0zM560 336c0-26.51-21.49-48-48-48s-48 21.49-48 48c0 26.51 21.49 48 48 48v0c26.497-0.031 47.969-21.503 48-47.997v-0.003z" />
<glyph unicode="&#xf1fd;" glyph-name="x" data-tags="x" d="M822.627 246.627c5.799-5.792 9.387-13.798 9.387-22.641 0-17.673-14.327-31.999-31.999-31.999-8.843 0-16.849 3.587-22.641 9.386v0l-265.373 265.373-265.373-265.373c-5.789-5.782-13.783-9.358-22.613-9.358-17.673 0-31.999 14.327-31.999 31.999 0 8.829 3.576 16.823 9.359 22.613v0l265.373 265.373-265.373 265.373c-5.782 5.789-9.358 13.783-9.358 22.613 0 17.673 14.327 31.999 31.999 31.999 8.829 0 16.823-3.576 22.613-9.359v0l265.373-265.373 265.373 265.373c5.789 5.782 13.783 9.358 22.613 9.358 17.673 0 31.999-14.327 31.999-31.999 0-8.829-3.576-16.823-9.359-22.613v0l-265.373-265.373z" />
<glyph unicode="&#xf1fe;" glyph-name="x-circle" data-tags="x-circle" d="M512.002 928c-229.75 0-416-186.25-416-416s186.25-416 416-416c229.75 0 416 186.25 416 416v0c-0.268 229.642-186.357 415.732-415.974 416h-0.026zM512.002 160c-194.404 0-352 157.596-352 352s157.596 352 352 352c194.404 0 352-157.596 352-352v0c-0.226-194.313-157.687-351.774-351.978-352h-0.022zM662.631 406.626c5.79-5.791 9.372-13.791 9.372-22.627 0-17.674-14.327-32.001-32.001-32.001-8.837 0-16.838 3.582-22.629 9.374l-105.371 105.372-105.371-105.372c-5.791-5.792-13.792-9.374-22.629-9.374-17.674 0-32.001 14.327-32.001 32.001 0 8.836 3.581 16.836 9.372 22.627l105.373 105.374-105.373 105.372c-5.79 5.791-9.372 13.791-9.372 22.627 0 17.674 14.327 32.001 32.001 32.001 8.837 0 16.838-3.582 22.629-9.374l105.369-105.37 105.369 105.37c5.791 5.792 13.792 9.374 22.629 9.374 17.674 0 32.001-14.327 32.001-32.001 0-8.836-3.581-16.836-9.372-22.627l-105.371-105.372z" />
<glyph unicode="&#xf25b;" glyph-name="arrows-left-right-light" data-tags="arrows-left-right-light" d="M916.139 306.975c-0.053-0.082-0.096-0.168-0.15-0.25-0.929-1.389-1.927-2.601-3.032-3.707v0l-127.988-127.988c-4.342-4.337-10.338-7.019-16.96-7.019-13.254 0-23.999 10.745-23.999 23.999 0 6.623 2.683 12.619 7.021 16.962v0l87.027 87.029h-710.059c-13.255 0-24 10.745-24 24s10.745 24 24 24v0h710.059l-87.027 87.029c-4.338 4.342-7.021 10.339-7.021 16.962 0 13.254 10.745 23.999 23.999 23.999 6.622 0 12.618-2.682 16.96-7.019v0l127.984-127.986c1.107-1.106 2.106-2.319 2.981-3.623l0.055-0.086c0.055-0.082 0.098-0.168 0.15-0.25 0.74-1.117 1.429-2.4 1.996-3.746l0.058-0.156c0.041-0.1 0.072-0.203 0.111-0.303 0.487-1.176 0.914-2.573 1.21-4.016l0.026-0.154c0.016-0.078 0.021-0.156 0.035-0.234 0.27-1.328 0.424-2.854 0.424-4.416s-0.154-3.088-0.448-4.564l0.025 0.148c-0.014-0.078-0.020-0.156-0.035-0.234-0.322-1.597-0.749-2.993-1.294-4.329l0.057 0.159c-0.039-0.1-0.070-0.203-0.111-0.303-0.626-1.502-1.314-2.785-2.11-3.991l0.055 0.089zM105.807 713.123c-0.041-0.1-0.072-0.203-0.111-0.303-0.487-1.176-0.914-2.573-1.21-4.016l-0.026-0.154c-0.016-0.078-0.022-0.156-0.035-0.234-0.27-1.328-0.424-2.854-0.424-4.416s0.154-3.088 0.448-4.564l-0.025 0.148c0.014-0.078 0.020-0.156 0.035-0.234 0.322-1.597 0.749-2.993 1.294-4.329l-0.057 0.159c0.039-0.1 0.070-0.203 0.111-0.303 0.626-1.502 1.314-2.785 2.11-3.991l-0.055 0.089c0.053-0.082 0.096-0.168 0.15-0.25 0.929-1.389 1.927-2.601 3.032-3.707v0l127.988-127.988c4.344-4.348 10.347-7.037 16.978-7.037 13.254 0 23.999 10.745 23.999 23.999 0 6.632-2.69 12.636-7.039 16.98v0l-87.027 87.029h710.059c13.255 0 24 10.745 24 24s-10.745 24-24 24v0h-710.059l87.027 87.029c4.349 4.344 7.039 10.348 7.039 16.98 0 13.254-10.745 23.999-23.999 23.999-6.631 0-12.634-2.689-16.978-7.037v0l-127.984-127.986c-1.107-1.106-2.106-2.319-2.981-3.623l-0.055-0.086c-0.055-0.082-0.098-0.168-0.15-0.25-0.74-1.117-1.429-2.4-1.996-3.746l-0.058-0.156z" />
<glyph unicode="&#xf27d;" glyph-name="bag-light" data-tags="bag-light" d="M864 760h-169.617c-12.258 90.765-89.235 160-182.383 160s-170.125-69.235-182.278-159.051l-0.105-0.949h-169.617c-30.914-0.036-55.964-25.086-56-55.996v-512.004c0.036-30.914 25.086-55.964 55.996-56h704.004c30.914 0.036 55.964 25.086 56 55.996v512.004c-0.036 30.914-25.086 55.964-55.996 56h-0.004zM512 872c66.587-0.095 121.966-47.962 133.706-111.159l0.13-0.841h-267.672c11.87 64.038 67.249 111.905 133.826 112h0.010zM872 192c-0.006-4.416-3.584-7.994-7.999-8h-704.001c-4.416 0.006-7.994 3.584-8 7.999v512.001c0.006 4.416 3.584 7.994 7.999 8h168.001v-104c0-13.255 10.745-24 24-24s24 10.745 24 24v0 104h272v-104c0-13.255 10.745-24 24-24s24 10.745 24 24v0 104h168c4.416-0.006 7.994-3.584 8-7.999v-0.001z" />
<glyph unicode="&#xf27e;" glyph-name="bag-simple-light" data-tags="bag-simple-light" d="M864 760h-169.617c-12.258 90.765-89.235 160-182.383 160s-170.125-69.235-182.278-159.051l-0.105-0.949h-169.617c-30.914-0.036-55.964-25.086-56-55.996v-512.004c0.036-30.914 25.086-55.964 55.996-56h704.004c30.914 0.036 55.964 25.086 56 55.996v512.004c-0.036 30.914-25.086 55.964-55.996 56h-0.004zM512 872c66.587-0.096 121.966-47.963 133.706-111.159l0.13-0.841h-267.672c11.871 64.038 67.249 111.904 133.826 112h0.010zM872 192c-0.006-4.416-3.584-7.994-7.999-8h-704.001c-4.416 0.006-7.994 3.584-8 7.999v512.001c0.006 4.416 3.584 7.994 7.999 8h704.001c4.416-0.006 7.994-3.584 8-7.999v-0.001z" />
<glyph unicode="&#xf2bf;" glyph-name="caret-down-light" data-tags="caret-down-light" d="M512 296c-0.009 0-0.020 0-0.031 0-6.618 0-12.608 2.687-16.939 7.029v0l-320 320c-4.331 4.341-7.009 10.333-7.009 16.95 0 13.255 10.745 24 24 24 6.617 0 12.609-2.678 16.951-7.009v0l303.029-303.029 303.029 303.029c4.341 4.331 10.333 7.009 16.95 7.009 13.255 0 24-10.745 24-24 0-6.617-2.678-12.609-7.009-16.951v0l-320-320c-4.332-4.343-10.322-7.029-16.94-7.029-0.011 0-0.022 0-0.033 0h0.002z" />
<glyph unicode="&#xf2c0;" glyph-name="caret-left-light" data-tags="caret-left-light" d="M640 168c-0.010 0-0.021 0-0.033 0-6.617 0-12.607 2.687-16.938 7.029l-320.001 320.001c-4.343 4.343-7.030 10.343-7.030 16.971s2.686 12.628 7.030 16.971l320 320c4.341 4.331 10.333 7.009 16.95 7.009 13.255 0 24-10.745 24-24 0-6.617-2.678-12.609-7.009-16.951v0l-303.029-303.029 303.029-303.029c4.343-4.343 7.030-10.343 7.030-16.971 0-13.255-10.745-24-24-24 0 0 0 0 0 0v0z" />
<glyph unicode="&#xf2c1;" glyph-name="caret-right-light" data-tags="caret-right-light" d="M384 168c0 0 0 0 0 0-13.255 0-24 10.745-24 24 0 6.627 2.686 12.628 7.030 16.971l303.029 303.029-303.029 303.029c-4.331 4.341-7.009 10.333-7.009 16.95 0 13.255 10.745 24 24 24 6.617 0 12.609-2.678 16.951-7.009v0l320-320c4.343-4.343 7.030-10.343 7.030-16.971s-2.686-12.628-7.030-16.971l-320-320c-4.331-4.343-10.321-7.029-16.938-7.029-0.011 0-0.023 0-0.034 0h0.002z" />
<glyph unicode="&#xf2e4;" glyph-name="check-circle-light" data-tags="check-circle-light" d="M705.357 624.572c4.11-4.3 6.64-10.141 6.64-16.572 0-6.824-2.848-12.983-7.42-17.353l-0.009-0.009-234.664-224c-4.3-4.109-10.14-6.639-16.57-6.639s-12.271 2.529-16.579 6.647l0.009-0.009-117.336 112c-4.541 4.373-7.361 10.505-7.361 17.296 0 13.255 10.745 24 24 24 6.397 0 12.21-2.503 16.512-6.583l-0.011 0.010 100.766-96.184 218.094 208.184c4.299 4.11 10.139 6.64 16.57 6.64 6.823 0 12.981-2.848 17.351-7.419l0.009-0.009zM919.998 512c0-225.332-182.668-408-408-408s-408 182.668-408 408c0 225.332 182.668 408 408 408v0c225.227-0.263 407.738-182.774 408-407.975v-0.025zM871.998 512c0 198.823-161.177 360-360 360s-360-161.177-360-360c0-198.823 161.177-360 360-360v0c198.729 0.232 359.767 161.271 360 359.977v0.023z" />
<glyph unicode="&#xf2e5;" glyph-name="check-light" data-tags="check-light" d="M415.998 264c-0.009 0-0.020 0-0.031 0-6.617 0-12.607 2.687-16.938 7.029l-224.001 223.983c-4.356 4.345-7.051 10.353-7.051 16.991 0 13.254 10.745 23.999 23.999 23.999 6.637 0 12.644-2.694 16.989-7.048v0l207.031-207.014 431.031 431.014c4.345 4.355 10.352 7.049 16.989 7.049 13.254 0 23.999-10.745 23.999-23.999 0-6.638-2.695-12.646-7.050-16.991v0l-448-447.982c-4.331-4.343-10.321-7.029-16.938-7.029-0.011 0-0.022 0-0.032 0h0.002z" />
<glyph unicode="&#xf2f5;" glyph-name="star-half" data-tags="star-half" d="M935.984 562.090l-34.871-29.023c-5.504-4.605-12.659-7.401-20.467-7.401-17.673 0-32 14.327-32 32 0 9.86 4.459 18.678 11.471 24.548l0.050 0.041 34.871 29.023c0.629 0.476 1.031 1.223 1.031 2.063 0 0.43-0.105 0.836-0.292 1.193l0.007-0.014c-0.453 1.391-0.93 1.422-1.387 1.449l-46.188 2.996c-16.76 1.12-29.93 14.989-29.93 31.934 0 17.673 14.327 32.001 32.001 32.001 0.728 0 1.451-0.024 2.167-0.072l-0.097 0.005 46.191-2.996c27.302-1.845 49.878-20.177 57.967-45.045l0.13-0.463c2.151-6.265 3.393-13.483 3.393-20.991 0-20.557-9.31-38.939-23.944-51.161l-0.106-0.086zM692.238 392.719l13.258-52.141c3.651-13.951 16.145-24.079 31.003-24.079 17.672 0 31.999 14.326 31.999 31.999 0 2.79-0.357 5.496-1.028 8.076l0.049-0.222-13.254 52.133c-0.073 0.249-0.114 0.536-0.114 0.832 0 0.859 0.352 1.636 0.919 2.195v0l40.129 33.398c7.053 5.911 11.505 14.723 11.505 24.576 0 17.673-14.327 32-32 32-7.797 0-14.942-2.788-20.494-7.422l0.051 0.041-40.129-33.398c-14.691-12.42-23.956-30.86-23.956-51.465 0-5.87 0.752-11.564 2.165-16.991l-0.103 0.468zM710.688 627.891l-52.547 3.41c-25.78 1.898-47.294 18.344-56.498 41.088l-0.158 0.443-57.484 144.751v-527.864c0.93-0.525 1.863-1.043 2.77-1.617l46.066-29.187c8.997-5.765 14.874-15.712 14.874-27.031 0-17.673-14.327-31.999-31.999-31.999-6.353 0-12.274 1.852-17.253 5.045l0.128-0.077-46.066 29.188c-0.144 0.099-0.32 0.16-0.51 0.168h-0.012c-0.194-0.005-0.373-0.067-0.521-0.17l0.003 0.002-187.48-118.781c-10.839-7.016-24.088-11.187-38.312-11.187-15.798 0-30.394 5.146-42.204 13.853l0.196-0.138c-18.497 13.51-30.378 35.123-30.378 59.51 0 6.596 0.869 12.989 2.499 19.070l-0.117-0.514 54.055 212.637c0.071 0.247 0.112 0.53 0.112 0.823 0 0.861-0.352 1.64-0.92 2.2v0l-180.914 150.578c-14.739 12.308-24.049 30.69-24.049 51.247 0 7.508 1.242 14.727 3.532 21.46l-0.139-0.469c8.218 25.331 30.793 43.663 57.893 45.497l0.201 0.011 236.262 15.332c0.639 0.16 1.136 0.643 1.313 1.261l0.003 0.013 88.117 221.899c9.73 24.586 33.297 41.66 60.851 41.66 27.556 0 51.123-17.076 60.698-41.223l0.154-0.442 88.117-221.887c0.178-0.635 0.678-1.122 1.308-1.279l0.012-0.003 52.547-3.41c16.768-1.11 29.949-14.983 29.949-31.935 0-17.674-14.327-32.001-32.001-32.001-0.738 0-1.469 0.025-2.194 0.074l0.098-0.005zM477.23 288.102c0.906 0.575 1.84 1.092 2.77 1.617v527.861l-57.484-144.756c-9.365-23.183-30.878-39.625-56.439-41.51l-0.217-0.013-236.258-15.332c-0.457-0.027-0.934-0.059-1.387-1.449-0.18-0.343-0.285-0.748-0.285-1.179 0-0.841 0.402-1.588 1.025-2.059l0.006-0.005 180.91-150.574c14.689-12.42 23.954-30.86 23.954-51.464 0-5.867-0.751-11.558-2.163-16.984l0.103 0.468-54.059-212.641c-0.28-0.848-0.442-1.824-0.442-2.837 0-3.154 1.564-5.942 3.959-7.631l0.029-0.020c1.185-1.003 2.731-1.614 4.419-1.614 1.533 0 2.949 0.503 4.091 1.353l-0.018-0.013zM801.453 222.852c-3.651 13.951-16.145 24.079-31.003 24.079-17.672 0-31.999-14.326-31.999-31.999 0-2.79 0.357-5.496 1.028-8.076l-0.049 0.222 11.098-43.645c0.124-0.292 0.195-0.631 0.195-0.987 0-0.517-0.151-0.998-0.412-1.403l0.006 0.010c-0.314-0.45-0.725-0.811-1.204-1.058l-0.018-0.009c-0.222 0.079-0.414 0.18-0.59 0.302l0.008-0.005-39.305 24.898c-4.851 3.116-10.772 4.968-17.125 4.968-17.673 0-31.999-14.327-31.999-31.999 0-11.319 5.877-21.266 14.747-26.955l0.128-0.077 39.301-24.898c9.842-6.37 21.872-10.156 34.786-10.156 14.341 0 27.591 4.669 38.314 12.571l-0.178-0.125c16.759 12.235 27.523 31.812 27.523 53.904 0 5.967-0.785 11.751-2.258 17.253l0.106-0.465z" />
<glyph unicode="&#xf2f9;" glyph-name="clock-light" data-tags="clock-light" d="M512 104c-225.332 0-408 182.668-408 408s182.668 408 408 408c225.332 0 408-182.668 408-408v0c-0.263-225.226-182.773-407.737-407.974-408h-0.026zM512 872c-198.823 0-360-161.177-360-360s161.177-360 360-360c198.823 0 360 161.177 360 360v0c-0.232 198.729-161.271 359.768-359.977 360h-0.023zM760 512c0 13.255-10.745 24-24 24v0h-200v200c0 13.255-10.745 24-24 24s-24-10.745-24-24v0-224c0-13.255 10.745-24 24-24v0h224c13.255 0 24 10.745 24 24v0z" />
<glyph unicode="&#xf32b;" glyph-name="device-mobile-camera-light" data-tags="device-mobile-camera-light" d="M704 952h-384c-48.578-0.057-87.943-39.422-88-87.995v-704.005c0.057-48.578 39.422-87.943 87.995-88h384.005c48.578 0.057 87.943 39.422 88 87.995v704.005c-0.057 48.578-39.422 87.943-87.995 88h-0.005zM744 160c-0.027-22.081-17.919-39.973-39.997-40h-384.003c-22.081 0.027-39.973 17.919-40 39.997v704.003c0.027 22.081 17.919 39.973 39.997 40h384.003c22.081-0.027 39.973-17.919 40-39.997v-0.003zM552 784c0-22.091-17.909-40-40-40s-40 17.909-40 40c0 22.091 17.909 40 40 40v0c22.081-0.027 39.973-17.919 40-39.997v-0.003z" />
<glyph unicode="&#xf34b;" glyph-name="envelope-simple-light" data-tags="envelope-simple-light" d="M919.754 803.26c-0.029 0.202-0.061 0.401-0.094 0.604-0.245 1.503-0.586 2.828-1.033 4.103l0.051-0.167c-0.062 0.182-0.131 0.358-0.197 0.539-0.539 1.447-1.132 2.677-1.822 3.844l0.060-0.11c-0.098 0.166-0.199 0.328-0.301 0.493-0.802 1.291-1.646 2.411-2.578 3.449l0.020-0.022c-0.064 0.070-0.104 0.154-0.168 0.225-0.059 0.064-0.133 0.107-0.191 0.172-0.972 1.033-2.019 1.97-3.142 2.811l-0.063 0.045c-0.146 0.108-0.287 0.222-0.436 0.326-1.042 0.745-2.227 1.448-3.473 2.046l-0.144 0.063c-0.148 0.070-0.293 0.146-0.443 0.214-1.103 0.508-2.412 0.972-3.769 1.319l-0.165 0.036c-0.154 0.039-0.307 0.082-0.461 0.118-1.175 0.282-2.555 0.483-3.967 0.562l-0.062 0.003c-0.209 0.012-0.416 0.024-0.625 0.031-0.252 0.008-0.496 0.038-0.75 0.038h-768c-0.25 0-0.494-0.030-0.744-0.037-0.215-0.008-0.426-0.020-0.643-0.033-1.468-0.081-2.841-0.282-4.171-0.593l0.161 0.032c-0.162-0.037-0.32-0.083-0.48-0.124-1.515-0.381-2.819-0.843-4.065-1.408l0.149 0.061c-0.156-0.069-0.305-0.148-0.459-0.222-1.384-0.658-2.566-1.357-3.676-2.15l0.073 0.049c-0.15-0.107-0.295-0.221-0.443-0.332-1.184-0.886-2.231-1.822-3.19-2.841l-0.012-0.012c-0.059-0.064-0.133-0.107-0.191-0.172-0.064-0.070-0.104-0.154-0.168-0.225-0.913-1.016-1.757-2.136-2.5-3.325l-0.059-0.101c-0.102-0.165-0.203-0.327-0.301-0.493-0.629-1.056-1.222-2.288-1.707-3.572l-0.054-0.164c-0.066-0.179-0.135-0.355-0.197-0.535-0.396-1.109-0.738-2.435-0.964-3.8l-0.019-0.138c-0.033-0.202-0.064-0.401-0.094-0.604-0.148-0.972-0.237-2.101-0.246-3.249v-544.010c0.036-30.914 25.086-55.964 55.996-56h704.004c30.914 0.036 55.964 25.086 56 55.996v544.004c-0.009 1.158-0.099 2.287-0.262 3.392l0.016-0.132zM834.301 776l-322.301-295.441-322.301 295.441zM864 248h-704c-4.416 0.005-7.995 3.584-8 7.999v489.442l343.781-315.133c4.256-3.911 9.958-6.309 16.219-6.309s11.963 2.397 16.236 6.324l-0.017-0.016 343.781 315.133v-489.441c-0.005-4.416-3.584-7.995-7.999-8h-0.001z" />
<glyph unicode="&#xf34d;" glyph-name="equals-light" data-tags="equals-light" d="M888 384c-0.001-13.255-10.745-23.999-24-24h-704c-13.255 0-24 10.745-24 24s10.745 24 24 24v0h704c13.255-0.001 23.999-10.745 24-24v0zM160 616h704c13.255 0 24 10.745 24 24s-10.745 24-24 24v0h-704c-13.255 0-24-10.745-24-24s10.745-24 24-24v0z" />
<glyph unicode="&#xf350;" glyph-name="eyedropper-light" data-tags="eyedropper-light" d="M887.986 753.875c-0.42 38.228-16.664 72.581-42.478 96.881l-0.069 0.064c-52.953 50.129-138.748 48.197-191.254-4.301l-93.381-93.383-2.58 2.58c-15.936 15.9-37.932 25.731-62.225 25.731s-46.288-9.832-62.226-25.733l-28.117-28.117c-10.119-10.141-16.375-24.139-16.375-39.598s6.257-29.457 16.376-39.599l13.892-13.892-207.029-207.029c-27.485-27.594-44.478-65.656-44.478-107.688 0-10.849 1.132-21.433 3.285-31.641l-0.176 0.995-40.131-91.93c-2.513-5.549-3.977-12.033-3.977-18.858 0-12.962 5.281-24.69 13.808-33.151l0.003-0.003c10.094-10.166 24.077-16.459 39.53-16.459 8.133 0 15.859 1.743 22.824 4.876l-0.352-0.142 86.291 37.67c9.213-1.977 19.798-3.109 30.647-3.109 42.031 0 80.094 16.993 107.692 44.483l207.024 207.024 13.893-13.893c10.141-10.118 24.139-16.375 39.598-16.375s29.457 6.257 39.599 16.376l28.118 28.118c15.901 15.936 25.733 37.932 25.733 62.225s-9.832 46.289-25.734 62.226l-2.578 2.578 95.029 95.029c24.609 24.45 39.84 58.312 39.84 95.732 0 0.812-0.007 1.622-0.021 2.431l0.002-0.122zM393.539 246.461c-18.881-18.804-44.924-30.43-73.683-30.43-9.53 0-18.762 1.277-27.534 3.668l0.732-0.17c-1.857 0.516-3.99 0.813-6.192 0.813-3.473 0-6.773-0.738-9.753-2.065l0.153 0.061-93.613-40.867c-0.944-0.427-2.047-0.676-3.208-0.676-1.965 0-3.763 0.713-5.15 1.895l0.011-0.009 43.037 98.582c1.266 2.828 2.003 6.129 2.003 9.602 0 2.202-0.296 4.334-0.851 6.36l0.039-0.168c-2.222 8.040-3.499 17.273-3.499 26.803 0 28.758 11.626 54.801 30.434 73.685l207.026 207.026 147.078-147.078zM814.225 689.775l-112-112c-4.343-4.343-7.030-10.343-7.030-16.971s2.686-12.628 7.030-16.971l19.551-19.551c7.228-7.243 11.697-17.241 11.697-28.283s-4.469-21.040-11.698-28.284l-28.118-28.118c-1.448-1.446-3.448-2.341-5.656-2.341s-4.208 0.894-5.656 2.341v0l-242.746 242.746c-1.445 1.449-2.339 3.448-2.339 5.656s0.894 4.208 2.339 5.656v0l28.119 28.119c7.243 7.228 17.241 11.697 28.283 11.697s21.040-4.469 28.284-11.698l19.55-19.55c4.343-4.343 10.343-7.029 16.971-7.029s12.627 2.686 16.971 7.029l110.352 110.353c34.291 34.293 90.059 35.813 124.314 3.383 16.987-16.078 27.559-38.784 27.559-63.959 0-24.301-9.85-46.301-25.776-62.226v0z" />
<glyph unicode="&#xf351;" glyph-name="eye-light" data-tags="eye-light" d="M981.934 521.748c-1.383 3.105-34.664 76.934-108.961 151.238-68.898 68.906-187.453 151.047-360.973 151.047s-292.074-82.141-360.973-151.047c-74.297-74.305-107.578-148.133-108.961-151.238-1.305-2.866-2.066-6.216-2.066-9.743 0-3.531 0.762-6.884 2.132-9.903l-0.061 0.151c1.379-3.105 34.664-76.918 108.961-151.207 68.898-68.891 187.449-151.012 360.969-151.012s292.070 82.121 360.969 151.012c74.297 74.289 107.582 148.102 108.961 151.207 1.308 2.868 2.070 6.221 2.070 9.752 0 3.528-0.761 6.878-2.128 9.895l0.061-0.151zM512 248.033c-125.512 0-235.121 45.664-325.793 135.723-37.12 36.879-68.876 79.094-94.036 125.411l-1.409 2.835c26.569 49.166 58.327 91.392 95.422 128.254l0.028 0.027c90.668 90.078 200.281 135.75 325.789 135.75s235.121-45.672 325.789-135.75c37.122-36.887 68.878-79.111 94.036-125.438l1.409-2.836c-25.469-48.801-153.078-263.977-421.234-263.977zM512 695.998c-101.62 0-184-82.38-184-184s82.38-184 184-184c101.62 0 184 82.38 184 184v0c-0.119 101.572-82.427 183.881-183.988 184h-0.012zM512 375.998c-75.111 0-136 60.889-136 136s60.889 136 136 136c75.111 0 136-60.889 136-136v0c-0.086-75.076-60.924-135.913-135.992-136h-0.008z" />
<glyph unicode="&#xf352;" glyph-name="eye-slash-light" data-tags="eye-slash-light" d="M209.758 880.146c-4.408 4.847-10.739 7.878-17.778 7.878-13.255 0-24-10.745-24-24 0-6.237 2.379-11.918 6.279-16.186l-0.017 0.018 83.494-91.844c-149.089-87.598-212.878-227.99-215.67-234.266-1.305-2.866-2.066-6.216-2.066-9.743 0-3.531 0.762-6.884 2.132-9.903l-0.061 0.151c1.379-3.105 34.664-76.918 108.961-151.207 68.898-68.891 187.449-151.012 360.969-151.012 0.911-0.006 1.988-0.009 3.066-0.009 75.119 0 146.363 16.589 210.27 46.302l-3.079-1.285 91.985-101.184c4.408-4.847 10.739-7.878 17.778-7.878 13.255 0 24 10.745 24 24 0 6.237-2.379 11.918-6.279 16.186l0.017-0.018zM404.234 594.867l180.053-198.059c-20.513-13.075-45.517-20.84-72.334-20.84-75.085 0-135.953 60.868-135.953 135.953 0 31.366 10.622 60.251 28.465 83.254l-0.231-0.31zM512 248.033c-125.512 0-235.121 45.664-325.793 135.723-37.116 36.875-68.869 79.084-94.028 125.396l-1.409 2.835c17.144 32.809 80.369 140.717 200.037 207.65l80.772-88.85c-27.071-31.83-43.536-73.409-43.536-118.834 0-101.593 82.358-183.951 183.951-183.951 39.27 0 75.666 12.305 105.542 33.27l-0.589-0.392 71.241-78.365c-51.288-21.812-110.944-34.49-173.561-34.49-0.924 0-1.847 0.003-2.77 0.008l0.142-0.001zM981.93 502.251c-1.648-3.715-41.477-91.914-131.48-172.527-4.228-3.799-9.849-6.122-16.012-6.122-13.255 0-24.001 10.745-24.001 24.001 0 7.092 3.076 13.466 7.967 17.859l0.022 0.020c45.775 41.247 84.090 89.664 113.418 143.67l1.406 2.83c-26.572 49.173-58.334 91.406-95.433 128.273l-0.028 0.028c-90.668 90.078-200.281 135.75-325.789 135.75-0.192 0-0.418 0-0.645 0-27.593 0-54.641-2.332-80.959-6.809l2.83 0.398c-1.19-0.209-2.559-0.328-3.957-0.328-13.255 0-24 10.745-24 24 0 11.857 8.599 21.706 19.901 23.652l0.143 0.020c25.876 4.496 55.675 7.067 86.074 7.067 0.216 0 0.431 0 0.647 0h-0.033c173.52 0 292.074-82.141 360.973-151.047 74.297-74.305 107.578-148.133 108.961-151.238 1.305-2.866 2.066-6.216 2.066-9.744 0-3.531-0.762-6.884-2.132-9.903l0.061 0.151zM537.621 645.591c-11.198 2.177-19.537 11.906-19.537 23.583 0 13.256 10.746 24.002 24.002 24.002 1.596 0 3.155-0.156 4.664-0.453l-0.152 0.025c79.818-15.907 140.431-81.567 148.535-162.694l0.062-0.771c0.066-0.67 0.104-1.447 0.104-2.234 0-12.468-9.509-22.715-21.671-23.884l-0.097-0.008c-0.758-0.074-1.512-0.105-2.258-0.105-12.458 0.014-22.691 9.519-23.86 21.672l-0.008 0.097c-6.034 60.507-50.815 109.016-108.915 120.624l-0.87 0.145z" />
<glyph unicode="&#xf355;" glyph-name="faders-horizontal-light" data-tags="faders-horizontal-light" d="M567.996 336.026c-0.001-13.255-10.745-23.999-24-24h-384c-13.255 0-24 10.745-24 24s10.745 24 24 24v0h384c13.255-0.001 23.999-10.745 24-24v0zM863.996 360.026h-168v72c0 13.255-10.745 24-24 24s-24-10.745-24-24v0-192c0-13.255 10.745-24 24-24s24 10.745 24 24v0 72h168c13.255 0 24 10.745 24 24s-10.745 24-24 24v0zM159.996 664.030l128-0.004c13.255 0 24 10.745 24 24s-10.745 24-24 24v0l-128 0.004c-13.255 0-24-10.745-24-24s10.745-24 24-24v0zM415.996 568.026c13.255 0.001 23.999 10.745 24 24v0 72l424 0.004c13.255 0 24 10.745 24 24s-10.745 24-24 24v0l-424-0.004v72c0 13.255-10.745 24-24 24s-24-10.745-24-24v0-192c0.001-13.255 10.745-23.999 24-24v0z" />
<glyph unicode="&#xf35f;" glyph-name="file-text-light" data-tags="file-text-light" d="M856.031 672c0 0.005 0 0.010 0 0.015 0 6.786-2.827 12.912-7.368 17.263l-0.009 0.008-223.684 223.684c-0.045 0.045-0.096 0.083-0.141 0.127-0.512 0.505-1.043 0.99-1.598 1.447-0.154 0.127-0.322 0.235-0.48 0.358-0.459 0.36-0.922 0.717-1.408 1.043-0.143 0.095-0.293 0.174-0.438 0.266-0.518 0.331-1.039 0.655-1.582 0.947-0.102 0.055-0.211 0.098-0.312 0.151-0.594 0.307-1.193 0.599-1.813 0.856-0.068 0.028-0.139 0.048-0.207 0.076-0.654 0.265-1.318 0.509-2 0.717-0.068 0.021-0.139 0.033-0.205 0.052-0.678 0.2-1.365 0.379-2.066 0.52-0.178 0.036-0.361 0.051-0.543 0.083-0.588 0.104-1.178 0.207-1.781 0.266-0.718 0.077-1.552 0.121-2.396 0.121h-384.032c-30.914-0.036-55.964-25.086-56-55.996v-704.004c0.036-30.914 25.086-55.964 55.996-56h576.035c30.914 0.036 55.964 25.086 56 55.996v511.367c0.006 0.214 0.031 0.422 0.031 0.637zM632 838.059l142.059-142.059h-142.059zM800 152h-576.031c-4.416 0.005-7.995 3.584-8 7.999v704.001c0.005 4.416 3.584 7.995 7.999 8h360.032v-200c0.001-13.255 10.745-23.999 24-24h200v-488c-0.005-4.416-3.584-7.995-7.999-8h-0.001zM664 480c-0.001-13.255-10.745-23.999-24-24h-256c-13.255 0-24 10.745-24 24s10.745 24 24 24v0h256c13.255-0.001 23.999-10.745 24-24v0zM664 352c-0.001-13.255-10.745-23.999-24-24h-256c-13.255 0-24 10.745-24 24s10.745 24 24 24v0h256c13.255-0.001 23.999-10.745 24-24v0z" />
<glyph unicode="&#xf37c;" glyph-name="funnel-light" data-tags="funnel-light" d="M448.006 99.777c-30.927 0.019-55.993 25.088-56.006 56.014v311.837c0 0.003 0 0.007 0 0.012 0 2.067-0.788 3.95-2.080 5.366l0.006-0.006-263.023 289.328c-9.033 9.908-14.565 23.144-14.565 37.672 0 30.928 25.072 56 56 56 0 0 0.001 0 0.001 0h687.324c30.929 0 56.001-25.073 56.001-56.001 0-14.527-5.532-27.763-14.604-37.715l-262.98-289.276c-1.29-1.411-2.080-3.299-2.080-5.37 0-0.003 0-0.006 0-0.009v0-226.504c0-0.019 0-0.042 0-0.065 0-19.332-9.818-36.371-24.739-46.402l-0.2-0.127-127.998-85.332c-8.724-5.9-19.479-9.42-31.056-9.422h-0.001zM168.338 808c0 0-0.001 0-0.002 0-4.418 0-7.999-3.581-7.999-7.999 0-2.076 0.791-3.968 2.088-5.39l-0.006 0.006 263.016-289.32c9.032-9.887 14.564-23.105 14.564-37.614 0-0.019 0-0.038 0-0.057v0.003-311.836c0 0 0-0.001 0-0.001 0-4.417 3.581-7.998 7.998-7.998 1.654 0 3.19 0.502 4.466 1.362l-0.028-0.018 128.002 85.332c2.16 1.452 3.562 3.887 3.562 6.65 0 0.002 0 0.005 0 0.007v0 226.504c0 0.015 0 0.033 0 0.051 0 14.514 5.535 27.735 14.609 37.668l-0.039-0.043 263.012 289.312c1.291 1.416 2.081 3.307 2.081 5.382 0 4.418-3.582 8-8 8 0 0-0.001 0-0.001 0v0z" />
<glyph unicode="&#xf3a6;" glyph-name="heart-light" data-tags="heart-light" d="M512.047 136c-0.001 0-0.002 0-0.003 0-4.307 0-8.348 1.135-11.842 3.122l0.118-0.062c-77.217 45.618-144.075 94.895-205.478 150.118l1.15-1.017c-137.984 124.184-207.945 247.943-207.945 367.839 0.038 128.138 103.923 232 232.066 232 79.461 0 149.594-39.936 191.423-100.833l0.511-0.787c42.34 61.683 112.473 101.62 191.934 101.62 128.143 0 232.029-103.862 232.066-231.996v-0.004c0-119.896-69.961-243.655-207.945-367.839-60.253-54.206-127.111-103.483-198.518-145.905l-5.81-3.196c-3.375-1.925-7.417-3.060-11.723-3.060-0.001 0-0.002 0-0.003 0v0zM320.047 840c-101.572-0.119-183.881-82.427-184-183.988v-0.012c0-229.302 311.145-429.027 376-468.149 64.855 39.123 376 238.847 376 468.149-0.020 101.625-82.407 184-184.035 184-76.042 0-141.312-46.119-169.365-111.911l-0.456-1.202c-3.719-8.735-12.23-14.747-22.145-14.747s-18.426 6.012-22.085 14.59l-0.059 0.157c-28.389 66.982-93.584 113.114-169.555 113.114-0.106 0-0.212 0-0.317 0h0.016z" />
<glyph unicode="&#xf3ae;" glyph-name="hourglass-medium-light" data-tags="hourglass-medium-light" d="M792 721.436v142.564c-0.036 30.914-25.086 55.964-55.996 56h-448.004c-30.914-0.036-55.964-25.086-56-55.996v-144.004c0.045-18.248 8.769-34.449 22.261-44.7l0.139-0.101 217.6-163.199-217.6-163.199c-13.631-10.352-22.355-26.553-22.4-44.793v-144.007c0.036-30.914 25.086-55.964 55.996-56h448.004c30.914 0.036 55.964 25.086 56 55.996v142.568c-0.048 18.173-8.7 34.315-22.096 44.575l-0.135 0.099-217.969 164.762 217.969 164.762c13.53 10.359 22.182 26.501 22.23 44.666v0.008zM280 864c0.006 4.416 3.584 7.994 7.999 8h448.001c4.416-0.006 7.994-3.584 8-7.999v-142.565c-0.007-2.596-1.243-4.903-3.157-6.369l-0.019-0.014-25.182-19.035h-409l-23.443 17.584c-1.947 1.478-3.193 3.792-3.199 6.397v0.001zM511.943 542.043l-141.301 105.975h281.498zM744 302.564v-142.564c-0.006-4.416-3.584-7.994-7.999-8h-448.001c-4.416 0.006-7.994 3.584-8 7.999v144.001c0.006 2.606 1.252 4.92 3.179 6.384l0.020 0.014 204.801 153.602v-111.982c0-13.255 10.745-24 24-24s24 10.745 24 24v0 111.756l204.824-154.826c1.933-1.48 3.169-3.787 3.176-6.382v-0.001z" />
<glyph unicode="&#xf3ba;" glyph-name="info-light" data-tags="info-light" d="M512.002 920.001c-225.332 0-408-182.668-408-408s182.668-408 408-408c225.332 0 408 182.668 408 408v0c-0.263 225.227-182.774 407.738-407.975 408h-0.025zM512.002 152.001c-198.823 0-360 161.177-360 360s161.177 360 360 360c198.823 0 360-161.177 360-360v0c-0.232-198.729-161.271-359.767-359.977-360h-0.023zM568.002 320.001c-0.001-13.255-10.745-23.999-24-24h-32c-13.255 0.001-23.999 10.745-24 24v0 200h-8c-13.255 0-24 10.745-24 24s10.745 24 24 24v0h32c13.255-0.001 23.999-10.745 24-24v0-200h8c13.255-0.001 23.999-10.745 24-24v0zM483.717 659.716c-7.238 7.239-11.714 17.238-11.714 28.283 0 22.092 17.909 40.002 40.002 40.002s40.001-17.908 40.002-40v0-0.012c-0.009-22.087-17.916-39.988-40.004-39.988-11.046 0-21.046 4.477-28.285 11.715v0z" />
<glyph unicode="&#xf3c4;" glyph-name="lifebuoy-light" data-tags="lifebuoy-light" d="M801.828 225.133c73.036 73.589 118.172 174.957 118.172 286.867s-45.136 213.278-118.197 286.893l0.025-0.025c-0.453 0.539-0.824 1.121-1.332 1.629s-1.092 0.881-1.633 1.334c-73.588 73.034-174.955 118.17-286.863 118.17s-213.275-45.135-286.888-118.195l0.025 0.025c-0.541-0.453-1.125-0.826-1.633-1.334s-0.879-1.090-1.332-1.629c-73.036-73.589-118.172-174.957-118.172-286.867s45.136-213.278 118.197-286.893l-0.025 0.025c0.453-0.539 0.824-1.121 1.332-1.629s1.092-0.881 1.631-1.334c73.589-73.035 174.956-118.17 286.865-118.17s213.276 45.135 286.891 118.195l-0.025-0.025c0.539 0.453 1.123 0.826 1.631 1.334s0.879 1.090 1.332 1.629zM782.834 275.104l-124.951 124.951c23.777 30.626 38.117 69.611 38.117 111.945s-14.34 81.32-38.429 112.363l0.311-0.417 124.951 124.951c55.372-62.893 89.166-145.948 89.166-236.896s-33.794-174.003-89.509-237.294l0.343 0.397zM376 512c0 75.111 60.889 136 136 136s136-60.889 136-136c0-75.111-60.889-136-136-136v0c-75.076 0.086-135.913 60.924-136 135.992v0.008zM748.896 782.834l-124.951-124.951c-30.626 23.777-69.611 38.117-111.945 38.117s-81.32-14.34-112.363-38.429l0.417 0.311-124.951 124.951c62.893 55.372 145.948 89.166 236.896 89.166s174.003-33.794 237.294-89.509l-0.397 0.343zM241.166 748.896l124.951-124.951c-23.777-30.626-38.117-69.611-38.117-111.945s14.34-81.32 38.429-112.363l-0.311 0.417-124.951-124.951c-55.372 62.893-89.166 145.948-89.166 236.896s33.794 174.003 89.509 237.294l-0.343-0.397zM275.104 241.166l124.951 124.951c30.626-23.777 69.611-38.117 111.945-38.117s81.32 14.34 112.363 38.429l-0.417-0.311 124.951-124.951c-62.893-55.372-145.948-89.166-236.896-89.166s-174.003 33.794-237.294 89.509l0.397-0.343z" />
<glyph unicode="&#xf3cf;" glyph-name="link-simple-light" data-tags="link-simple-light" d="M664.713 664.77c4.344-4.342 7.031-10.342 7.031-16.969s-2.687-12.627-7.031-16.969l-271.527-271.527c-4.343-4.343-10.342-7.029-16.969-7.029-13.253 0-23.997 10.744-23.997 23.997 0 6.627 2.686 12.626 7.029 16.969l271.527 271.527c4.342 4.344 10.342 7.031 16.969 7.031s12.627-2.687 16.969-7.031v0zM562.885 325.328l-113.137-113.137c-30.398-30.374-72.379-49.16-118.748-49.16-92.785 0-168.001 75.217-168.001 168.001 0 46.369 18.785 88.35 49.161 118.749l113.136 113.136c4.337 4.342 7.019 10.337 7.019 16.959 0 13.253-10.744 23.997-23.997 23.997-6.622 0-12.618-2.682-16.96-7.020v0l-113.137-113.137c-39.020-39.076-63.15-93.029-63.15-152.618 0-119.291 96.705-215.996 215.996-215.996 59.589 0 113.542 24.13 152.621 63.152l113.134 113.134c4.337 4.342 7.019 10.337 7.019 16.959 0 13.253-10.744 23.997-23.997 23.997-6.622 0-12.618-2.682-16.96-7.020v0zM845.744 845.777c-39.115 39.028-93.105 63.161-152.732 63.161s-113.617-24.133-152.736-63.165l-113.133-113.133c-4.355-4.345-7.049-10.352-7.049-16.989 0-13.253 10.744-23.997 23.997-23.997 6.637 0 12.645 2.694 16.989 7.049v0l113.137 113.137c30.398 30.374 72.379 49.16 118.748 49.16 92.785 0 168.001-75.217 168.001-168.001 0-46.369-18.785-88.35-49.161-118.749l-113.136-113.136c-4.348-4.344-7.038-10.347-7.038-16.978 0-13.253 10.744-23.997 23.997-23.997 6.631 0 12.634 2.69 16.978 7.038v0l113.137 113.137c39.029 39.114 63.164 93.105 63.164 152.732s-24.134 113.618-63.168 152.736l0.004-0.004z" />
<glyph unicode="&#xf3d2;" glyph-name="list-light" data-tags="list-light" d="M888 511.999c-0.001-13.255-10.745-23.999-24-24h-704c-13.255 0-24 10.745-24 24s10.745 24 24 24v0h704c13.255-0.001 23.999-10.745 24-24v0zM160 743.999h704c13.255 0 24 10.745 24 24s-10.745 24-24 24v0h-704c-13.255 0-24-10.745-24-24s10.745-24 24-24v0zM864 279.999h-704c-13.255 0-24-10.745-24-24s10.745-24 24-24v0h704c13.255 0 24 10.745 24 24s-10.745 24-24 24v0z" />
<glyph unicode="&#xf3df;" glyph-name="magnifying-glass-light" data-tags="magnifying-glass-light" d="M912.934 144.97l-178.122 178.122c55.386 63.051 89.18 146.253 89.18 237.349 0 199.065-161.374 360.439-360.439 360.439s-360.439-161.374-360.439-360.439c0-199.065 161.374-360.439 360.439-360.439 91.081 0 174.271 33.783 237.724 89.502l-0.407-0.35 178.126-178.126c4.343-4.342 10.342-7.028 16.969-7.028 13.254 0 23.999 10.745 23.999 23.999 0 6.628-2.687 12.628-7.030 16.971v0zM151.992 560.002c0 172.312 139.687 311.999 311.999 311.999s311.999-139.687 311.999-311.999c0-172.312-139.687-311.999-311.999-311.999v0c-172.231 0.2-311.798 139.767-311.999 311.98v0.019z" />
<glyph unicode="&#xf3ef;" glyph-name="minus-light" data-tags="minus-light" d="M864 488h-704c-13.255 0-24 10.745-24 24s10.745 24 24 24v0h704c13.255 0 24-10.745 24-24s-10.745-24-24-24v0z" />
<glyph unicode="&#xf449;" glyph-name="plus-light" data-tags="plus-light" d="M888 512c-0.001-13.255-10.745-23.999-24-24h-328v-328c0-13.255-10.745-24-24-24s-24 10.745-24 24v0 328h-328c-13.255 0-24 10.745-24 24s10.745 24 24 24v0h328v328c0 13.255 10.745 24 24 24s24-10.745 24-24v0-328h328c13.255-0.001 23.999-10.745 24-24v0z" />
<glyph unicode="&#xf476;" glyph-name="shopping-bag-open-light" data-tags="shopping-bag-open-light" d="M864 856h-704c-30.914-0.036-55.964-25.086-56-55.996v-576.004c0.036-30.914 25.086-55.964 55.996-56h704.004c30.914 0.036 55.964 25.086 56 55.996v576.004c-0.036 30.914-25.086 55.964-55.996 56h-0.004zM160 808h704c4.416-0.006 7.994-3.584 8-7.999v-72.001h-720v72c0.006 4.416 3.584 7.994 7.999 8h0.001zM864 216h-704c-4.416 0.006-7.994 3.584-8 7.999v456.001h720v-456c-0.006-4.416-3.584-7.994-7.999-8h-0.001zM696 576c0-101.62-82.38-184-184-184s-184 82.38-184 184v0c0 13.255 10.745 24 24 24s24-10.745 24-24v0c0-75.111 60.889-136 136-136s136 60.889 136 136v0c0 13.255 10.745 24 24 24s24-10.745 24-24v0z" />
<glyph unicode="&#xf478;" glyph-name="shopping-cart-simple-light" data-tags="shopping-cart-simple-light" d="M376 160c0-30.928-25.072-56-56-56s-56 25.072-56 56c0 30.928 25.072 56 56 56v0c30.928 0 56-25.072 56-56v0zM736 216c-30.928 0-56-25.072-56-56s25.072-56 56-56c30.928 0 56 25.072 56 56v0c0 30.928-25.072 56-56 56v0zM909.934 729.406l-105.594-369.582c-10.971-37.079-44.666-63.694-84.598-63.824h-383.468c-39.948 0.13-73.644 26.746-84.454 63.201l-0.159 0.625-105.472 369.152c-0.082 0.275-0.164 0.553-0.238 0.832l-38.969 136.387c-0.997 3.371-4.060 5.791-7.69 5.803h-67.29c-13.255 0-24 10.745-24 24s10.745 24 24 24v0h67.289c25.421-0.084 46.863-17.020 53.746-40.217l0.101-0.398 34.109-119.385h699.609c13.256 0 24.001-10.746 24.001-24.002 0-2.348-0.337-4.617-0.966-6.762l0.043 0.17zM855.039 712h-654.078l96.855-338.988c4.985-16.854 20.3-28.953 38.45-29.012h383.46c18.156 0.059 33.471 12.157 38.385 28.726l0.072 0.284z" />
<glyph unicode="&#xf4b3;" glyph-name="spinner-light" data-tags="spinner-light" d="M536 896v-128c0-13.255-10.745-24-24-24s-24 10.745-24 24v0 128c0 13.255 10.745 24 24 24s24-10.745 24-24v0zM693.020 669.020c0.009 0 0.020 0 0.031 0 6.617 0 12.607 2.688 16.937 7.031l90.509 90.509c4.33 4.341 7.008 10.332 7.008 16.948 0 13.253-10.744 23.997-23.997 23.997-6.616 0-12.607-2.678-16.949-7.009v0l-90.508-90.508c-4.342-4.343-7.028-10.342-7.028-16.969 0-13.254 10.743-23.998 23.996-24v0zM896 536h-128c-13.255 0-24-10.745-24-24s10.745-24 24-24v0h128c13.255 0 24 10.745 24 24s-10.745 24-24 24v0zM709.988 347.949c-4.341 4.33-10.332 7.008-16.948 7.008-13.253 0-23.997-10.744-23.997-23.997 0-6.616 2.678-12.607 7.009-16.949v0l90.508-90.508c4.341-4.33 10.332-7.008 16.948-7.008 13.253 0 23.997 10.744 23.997 23.997 0 6.616-2.678 12.607-7.009 16.949v0zM512 280c-13.255-0.001-23.999-10.745-24-24v0-128c0-13.255 10.745-24 24-24s24 10.745 24 24v0 128c-0.001 13.255-10.745 23.999-24 24v0zM314.012 347.949l-90.508-90.508c-4.355-4.345-7.049-10.352-7.049-16.989 0-13.253 10.744-23.997 23.997-23.997 6.637 0 12.645 2.694 16.989 7.049v0l90.508 90.508c4.33 4.341 7.008 10.332 7.008 16.948 0 13.253-10.744 23.997-23.997 23.997-6.616 0-12.607-2.678-16.949-7.009v0zM280 512c-0.001 13.255-10.745 23.999-24 24h-128c-13.255 0-24-10.745-24-24s10.745-24 24-24v0h128c13.255 0.001 23.999 10.745 24 24v0zM257.441 800.496c-4.338 4.317-10.321 6.987-16.926 6.987-13.253 0-23.997-10.744-23.997-23.997 0-6.606 2.669-12.588 6.987-16.927l90.507-90.507c4.341-4.33 10.332-7.008 16.948-7.008 13.253 0 23.997 10.744 23.997 23.997 0 6.616-2.678 12.607-7.009 16.949v0z" />
<glyph unicode="&#xf4b7;" glyph-name="squares-four-light" data-tags="squares-four-light" d="M448 856h-256c-13.255 0-24-10.745-24-24v0-256c0-13.255 10.745-24 24-24h256c13.255 0 24 10.745 24 24v0 256c0 13.255-10.745 24-24 24v0zM424 600h-208v208h208zM832 856h-256c-13.255 0-24-10.745-24-24v0-256c0-13.255 10.745-24 24-24h256c13.255 0 24 10.745 24 24v0 256c0 13.255-10.745 24-24 24v0zM808 600h-208v208h208zM448 472h-256c-13.255 0-24-10.745-24-24v0-256c0.001-13.255 10.745-23.999 24-24h256c13.255 0.001 23.999 10.745 24 24v0 256c0 13.255-10.745 24-24 24v0zM424 216h-208v208h208zM832 472h-256c-13.255 0-24-10.745-24-24v0-256c0.001-13.255 10.745-23.999 24-24h256c13.255 0.001 23.999 10.745 24 24v0 256c0 13.255-10.745 24-24 24v0zM808 216h-208v208h208z" />
<glyph unicode="&#xf4ba;" glyph-name="star-light" data-tags="star-light" d="M749.047 104.075c-11.324 0.011-21.87 3.329-30.728 9.041l0.224-0.135-201.742 127.816c-1.357 0.882-3.018 1.406-4.801 1.406s-3.443-0.524-4.835-1.427l0.035 0.021-187.48-118.779c-9.608-6.335-21.393-10.106-34.059-10.106-14.047 0-27.010 4.638-37.443 12.465l0.161-0.116c-16.485 12.049-27.073 31.317-27.073 53.057 0 5.887 0.776 11.593 2.232 17.020l-0.105-0.458 54.055 212.64c0.234 0.847 0.369 1.819 0.369 2.822 0 3.319-1.471 6.294-3.796 8.309l-0.014 0.012-180.91 150.575c-12.972 10.838-21.164 27.021-21.164 45.118 0 6.617 1.095 12.977 3.114 18.911l-0.122-0.413c7.208 22.254 27.030 38.365 50.831 39.988l0.177 0.010 236.258 15.333c3.802 0.333 6.945 2.83 8.213 6.24l0.022 0.067 88.121 221.896c8.522 21.604 29.215 36.613 53.414 36.613s44.893-15.009 53.279-36.226l0.135-0.388 88.117-221.891c1.29-3.478 4.435-5.977 8.202-6.308l0.037-0.003 236.258-15.333c23.978-1.633 43.8-17.744 50.894-39.591l0.114-0.407c1.897-5.521 2.992-11.882 2.992-18.499 0-18.095-8.191-34.277-21.068-45.041l-0.093-0.075-180.914-150.574c-2.339-2.028-3.81-5.003-3.81-8.322 0-1.004 0.135-1.976 0.387-2.9l-0.018 0.077 58.289-229.288c1.206-4.439 1.899-9.536 1.899-14.795 0-19.442-9.47-36.672-24.050-47.328l-0.166-0.115c-9.25-6.808-20.864-10.901-33.434-10.916h-0.004zM512 290.144c0.022 0 0.047 0 0.073 0 11.281 0 21.796-3.28 30.644-8.938l-0.229 0.137 201.742-127.815c1.345-0.948 3.017-1.515 4.822-1.515 1.993 0 3.825 0.692 5.269 1.848l-0.017-0.013c2.688 1.915 4.42 5.021 4.42 8.532 0 1.079-0.164 2.12-0.467 3.099l0.020-0.074-58.289 229.29c-1.155 4.371-1.818 9.389-1.818 14.561 0 18.136 8.153 34.368 20.993 45.231l0.087 0.072 180.91 150.573c2.376 1.965 3.878 4.913 3.878 8.212 0 1.311-0.237 2.567-0.671 3.727l0.024-0.073c-1.047 3.855-4.395 6.69-8.445 6.953l-0.028 0.001-236.258 15.333c-22.64 1.677-41.529 16.128-49.603 36.109l-0.139 0.389-88.113 221.889c-1.274 3.71-4.734 6.329-8.805 6.329s-7.53-2.618-8.785-6.263l-0.020-0.065-88.117-221.893c-8.212-20.368-27.1-34.818-49.547-36.483l-0.192-0.011-236.258-15.333c-4.077-0.265-7.426-3.099-8.457-6.889l-0.015-0.066c-0.41-1.086-0.647-2.342-0.647-3.653 0-3.3 1.504-6.25 3.864-8.2l0.018-0.014 180.906-150.573c12.927-10.934 21.080-27.166 21.080-45.301 0-5.172-0.663-10.19-1.909-14.972l0.091 0.412-54.055-212.643c-0.426-1.434-0.671-3.081-0.671-4.785 0-5.81 2.847-10.954 7.221-14.115l0.051-0.035c2.5-1.927 5.676-3.088 9.124-3.088 3.112 0 6.004 0.946 8.402 2.567l-0.053-0.034 187.48 118.78c8.619 5.521 19.134 8.801 30.415 8.801 0.026 0 0.051 0 0.077 0h-0.004z" />
<glyph unicode="&#xf4d3;" glyph-name="text-align-left-light" data-tags="text-align-left-light" d="M136 752c0.001 13.255 10.745 23.999 24 24h704c13.255 0 24-10.745 24-24s-10.745-24-24-24v0h-704c-13.255 0.001-23.999 10.745-24 24v0zM160 568h512c13.255 0 24 10.745 24 24s-10.745 24-24 24v0h-512c-13.255 0-24-10.745-24-24s10.745-24 24-24v0zM864 456h-703.977c-13.255 0-24-10.745-24-24s10.745-24 24-24v0h703.977c13.255 0 24 10.745 24 24s-10.745 24-24 24v0zM672 296h-511.977c-13.255 0-24-10.745-24-24s10.745-24 24-24v0h511.977c13.255 0 24 10.745 24 24s-10.745 24-24 24v0z" />
<glyph unicode="&#xf4d4;" glyph-name="text-align-right-light" data-tags="text-align-right-light" d="M136 752c0.001 13.255 10.745 23.999 24 24h704c13.255 0 24-10.745 24-24s-10.745-24-24-24v0h-704c-13.255 0.001-23.999 10.745-24 24v0zM864 616h-512c-13.255 0-24-10.745-24-24s10.745-24 24-24v0h512c13.255 0 24 10.745 24 24s-10.745 24-24 24v0zM864 456h-703.977c-13.255 0-24-10.745-24-24s10.745-24 24-24v0h703.977c13.255 0 24 10.745 24 24s-10.745 24-24 24v0zM864 296h-511.977c-13.255 0-24-10.745-24-24s10.745-24 24-24v0h511.977c13.255 0 24 10.745 24 24s-10.745 24-24 24v0z" />
<glyph unicode="&#xf502;" glyph-name="user-light" data-tags="user-light" d="M920.822 172.049c-62.070 105.536-160.988 183.755-278.689 217.603l-3.346 0.823c91.638 47.275 153.213 141.272 153.213 249.65 0 154.64-125.36 280-280 280s-280-125.36-280-280c0-108.378 61.574-202.375 151.648-248.915l1.564-0.735c-121.044-34.67-219.96-112.887-280.822-216.203l-1.208-2.216c-2.028-3.447-3.227-7.593-3.227-12.020 0-13.255 10.745-24 24-24 8.829 0 16.544 4.767 20.712 11.868l0.061 0.113c74.714 127.624 211.14 211.982 367.27 211.982 156.133 0 292.562-84.362 366.191-209.99l1.083-2c4.229-7.213 11.945-11.981 20.773-11.981 13.255 0 24 10.745 24 24 0 4.426-1.198 8.573-3.288 12.132l0.061-0.113zM280 640c0 128.13 103.87 232 232 232s232-103.87 232-232c0-128.13-103.87-232-232-232v0c-128.070 0.149-231.851 103.93-232 231.986v0.014z" />
<glyph unicode="&#xf552;" glyph-name="warning-circle-light" data-tags="warning-circle-light" d="M512 920c-225.332 0-408-182.668-408-408s182.668-408 408-408c225.332 0 408 182.668 408 408v0c-0.263 225.227-182.774 407.738-407.975 408h-0.025zM512 152c-198.823 0-360 161.177-360 360s161.177 360 360 360c198.823 0 360-161.177 360-360v0c-0.232-198.729-161.27-359.768-359.977-360h-0.023zM488 480v224c0 13.255 10.745 24 24 24s24-10.745 24-24v0-224c0-13.255-10.745-24-24-24s-24 10.745-24 24v0zM552 336c0-22.091-17.909-40-40-40s-40 17.909-40 40c0 22.091 17.909 40 40 40v0c22.081-0.026 39.974-17.919 40-39.997v-0.003z" />
<glyph unicode="&#xf560;" glyph-name="x-circle-light" data-tags="x-circle-light" d="M511.998 920c-225.332 0-408-182.668-408-408s182.668-408 408-408c225.332 0 408 182.668 408 408v0c-0.263 225.227-182.774 407.738-407.975 408h-0.025zM511.998 152c-198.823 0-360 161.177-360 360s161.177 360 360 360c198.823 0 360-161.177 360-360v0c-0.232-198.729-161.271-359.767-359.977-360h-0.023zM656.967 623.029l-111.029-111.029 111.029-111.029c4.356-4.345 7.051-10.353 7.051-16.991 0-13.254-10.745-23.999-23.999-23.999-6.637 0-12.644 2.694-16.989 7.048v0l-111.031 111.031-111.031-111.031c-4.341-4.33-10.332-7.008-16.948-7.008-13.254 0-23.999 10.745-23.999 23.999 0 6.617 2.678 12.609 7.010 16.951v0l111.029 111.029-111.029 111.029c-4.356 4.345-7.051 10.353-7.051 16.991 0 13.254 10.745 23.999 23.999 23.999 6.637 0 12.644-2.694 16.989-7.048v0l111.031-111.031 111.031 111.031c4.341 4.33 10.332 7.008 16.948 7.008 13.254 0 23.999-10.745 23.999-23.999 0-6.617-2.678-12.609-7.010-16.951v0z" />
<glyph unicode="&#xf561;" glyph-name="x-light" data-tags="x-light" d="M816.971 240.971c4.331-4.341 7.009-10.333 7.009-16.95 0-13.255-10.745-24-24-24-6.617 0-12.609 2.678-16.951 7.009v0l-271.029 271.029-271.029-271.029c-4.341-4.331-10.333-7.009-16.95-7.009-13.255 0-24 10.745-24 24 0 6.617 2.678 12.609 7.009 16.951v0l271.029 271.029-271.029 271.029c-4.331 4.341-7.009 10.333-7.009 16.95 0 13.255 10.745 24 24 24 6.617 0 12.609-2.678 16.951-7.009v0l271.029-271.029 271.029 271.029c4.341 4.331 10.333 7.009 16.95 7.009 13.255 0 24-10.745 24-24 0-6.617-2.678-12.609-7.009-16.951v0l-271.029-271.029z" />
</font>
</defs>
</svg>
